(Classical) Vivaldi - Cello Concerti, Vol.2 (Raphael Wallfisch, Nicholas Kraemer) - 1995, FLAC (image+.cue) lossless


Статистика раздачи [Обновить пиров]
Размер:  268 MB   |    Зарегистрирован:  8 месяцев 20 дней   |    Скачан:  0 раз

Полного источника не было: Никогда

 
   
 
 
 

[Цитировать]

Vivaldi - Cello Concerti, Vol.2 (Raphael Wallfisch, Nicholas Kraemer)
Жанр: Classical
Страна-производитель диска: Germany
Год издания диска: 1995
Издатель (лейбл): Naxos
Номер по каталогу: 8.550908
Дата записи: 1994
Аудиокодек: FLAC
Тип рипа: image+.cue
Битрейт аудио: lossless
Продолжительность: 57:17
Источник: собственный рип
сайт-источник/ник/другое: Из личной коллекции
Наличие сканов в содержимом раздачи: да
Треклист:
Vivaldi, Antonio
Cello Concerto in E-Flat Major, RV 408
1. I. Allegro non molto 00:03:30
2. II. Largo 00:03:33
3. III. Allegro 00:02:09
Concerto in G Minor for Two Cellos, RV 531
4. I. Allegro 00:03:34
5. II. Largo 00:04:37
6. III. Allegro 00:03:18
Cello Concerto in G Major, RV 413
7. I. Allegro 00:03:30
8. II. Largo 00:02:48
9. III. Allegro 00:02:53
Cello Concerto in C Minor, RV 401
10. I. Allegro non molto (Andante poco mosso) 00:04:37
11. II. Adagio 00:02:18
12. III. Allegro ma non molto 00:03:25
Cello Concerto in A Minor, RV 422
13. I. Allegro 00:03:17
14. II. Largo cantabile 00:02:12
15. III. Allegro 00:03:04
Cello Concerto in C Major, RV 400
16. I. Allegro 00:03:06
17. II. Largo 00:02:58
18. III. Allegro non molto 00:02:29
Total Playing Time: 00:57:18
Исполнители:
Raphael Wallfisch - cello
City of London Sinfonia, Nicholas Kraemer - conductor

Лог создания рипа

Exact Audio Copy V1.0 beta 3 from 29. August 2011
EAC extraction logfile from 22. February 2015, 14:00
Antonio Vivaldi / Cello Concerti. Vol. 2
Used drive : HL-DT-STDVDRAM GSA-T40N Adapter: 0 ID: 0
Read mode : Secure
Utilize accurate stream : Yes
Defeat audio cache : Yes
Make use of C2 pointers : No
Read offset correction : 667
Overread into Lead-In and Lead-Out : No
Fill up missing offset samples with silence : Yes
Delete leading and trailing silent blocks : No
Null samples used in CRC calculations : Yes
Used interface : Native Win32 interface for Win NT & 2000
Used output format : User Defined Encoder
Selected bitrate : 32 kBit/s
Quality : High
Add ID3 tag : No
Command line compressor : C:\Program Files\Exact Audio Copy\Flac\flac.exe
Additional command line options : -V -8 -T "Date=%year%" -T "Genre=%genre%" %source%
TOC of the extracted CD
Track | Start | Length | Start sector | End sector
---------------------------------------------------------
1 | 0:00.00 | 3:30.60 | 0 | 15809
2 | 3:30.60 | 3:33.10 | 15810 | 31794
3 | 7:03.70 | 2:08.30 | 31795 | 41424
4 | 9:12.25 | 3:34.00 | 41425 | 57474
5 | 12:46.25 | 4:36.62 | 57475 | 78236
6 | 17:23.12 | 3:18.25 | 78237 | 93111
7 | 20:41.37 | 3:30.00 | 93112 | 108861
8 | 24:11.37 | 2:47.65 | 108862 | 121451
9 | 26:59.27 | 2:53.43 | 121452 | 134469
10 | 29:52.70 | 4:36.27 | 134470 | 155196
11 | 34:29.22 | 2:18.43 | 155197 | 165589
12 | 36:47.65 | 3:24.57 | 165590 | 180946
13 | 40:12.47 | 3:17.13 | 180947 | 195734
14 | 43:29.60 | 2:11.72 | 195735 | 205631
15 | 45:41.57 | 3:03.18 | 205632 | 219374
16 | 48:45.00 | 3:06.22 | 219375 | 233346
17 | 51:51.22 | 2:58.40 | 233347 | 246736
18 | 54:49.62 | 2:28.33 | 246737 | 257869
Range status and errors
Selected range
Filename D:\Rip\Vivaldi.Cello_Concerti,Vol.2-Raphael_Wallfisch,Nicholas_Kraemer,1994(Naxos,8.550908)\Antonio Vivaldi - Cello Concerti. Vol. 2.wav
Peak level 75.3 %
Extraction speed 4.2 X
Range quality 100.0 %
Test CRC 05F05A35
Copy CRC 05F05A35
Copy OK
No errors occurred
AccurateRip summary
Track 1 cannot be verified as accurate (confidence 12) [514EA9D5], AccurateRip returned [02DCE162] (AR v2)
Track 2 cannot be verified as accurate (confidence 12) [446EA040], AccurateRip returned [500A4C03] (AR v2)
Track 3 cannot be verified as accurate (confidence 12) [E6D29AE8], AccurateRip returned [69FF2183] (AR v2)
Track 4 cannot be verified as accurate (confidence 12) [9A9F48E4], AccurateRip returned [993B55A3] (AR v2)
Track 5 cannot be verified as accurate (confidence 12) [8D423E49], AccurateRip returned [676AB827] (AR v2)
Track 6 cannot be verified as accurate (confidence 12) [A3D591CA], AccurateRip returned [6AA95259] (AR v2)
Track 7 cannot be verified as accurate (confidence 12) [28988C53], AccurateRip returned [E3B9E99C] (AR v2)
Track 8 cannot be verified as accurate (confidence 12) [509AD199], AccurateRip returned [57343822] (AR v2)
Track 9 cannot be verified as accurate (confidence 12) [0F260AB2], AccurateRip returned [EBB8E435] (AR v2)
Track 10 cannot be verified as accurate (confidence 12) [73EE1F94], AccurateRip returned [16D04DEC] (AR v2)
Track 11 cannot be verified as accurate (confidence 12) [C6D04DD7], AccurateRip returned [1D0D9734] (AR v2)
Track 12 cannot be verified as accurate (confidence 12) [5996C4A8], AccurateRip returned [ED6D5A0A] (AR v2)
Track 13 cannot be verified as accurate (confidence 12) [618F6EF3], AccurateRip returned [BCBAB7F2] (AR v2)
Track 14 cannot be verified as accurate (confidence 12) [5B93C1DE], AccurateRip returned [CBBF6984] (AR v2)
Track 15 cannot be verified as accurate (confidence 12) [469E613C], AccurateRip returned [3608B115] (AR v2)
Track 16 cannot be verified as accurate (confidence 12) [E6795FCD], AccurateRip returned [2858C06B] (AR v2)
Track 17 cannot be verified as accurate (confidence 12) [35EABDF3], AccurateRip returned [723D0983] (AR v2)
Track 18 cannot be verified as accurate (confidence 12) [D45030E8], AccurateRip returned [19289AB0] (AR v2)
No tracks could be verified as accurate
You may have a different pressing from the one(s) in the database
End of status report
==== Log checksum 63342D03B07AD793B23B5EF304C80D9F04AF4C952B2BED8804993F56ADEF167A ====

Содержание индексной карты (.CUE)

REM GENRE Classical
REM DATE 1995
REM DISCID DC0D6E12
REM COMMENT "ExactAudioCopy v1.0b3"
PERFORMER "Antonio Vivaldi"
TITLE "Cello Concerti. Vol. 2"
FILE "Antonio Vivaldi - Cello Concerti. Vol. 2.flac" WAVE
TRACK 01 AUDIO
TITLE "Allegro non molto"
PERFORMER "Concerto In E Flat Major, RV 408"
INDEX 01 00:00:00
TRACK 02 AUDIO
TITLE "Largo"
PERFORMER "Concerto In E Flat Major, RV 408"
INDEX 01 03:30:60
TRACK 03 AUDIO
TITLE "Allegro"
PERFORMER "Concerto In E Flat Major, RV 408"
INDEX 01 07:03:70
TRACK 04 AUDIO
TITLE "Allegro"
PERFORMER "Concerto In G Minor for two Cellos, RV 531"
INDEX 00 09:08:42
INDEX 01 09:12:25
TRACK 05 AUDIO
TITLE "Largo"
PERFORMER "Concerto In G Minor for two Cellos, RV 531"
INDEX 01 12:46:25
TRACK 06 AUDIO
TITLE "Allegro"
PERFORMER "Concerto In G Minor for two Cellos, RV 531"
INDEX 01 17:23:12
TRACK 07 AUDIO
TITLE "Allegro"
PERFORMER "Concerto In G Major, RV 413"
INDEX 00 20:38:12
INDEX 01 20:41:37
TRACK 08 AUDIO
TITLE "Largo"
PERFORMER "Concerto In G Major, RV 413"
INDEX 01 24:11:37
TRACK 09 AUDIO
TITLE "Allegro"
PERFORMER "Concerto In G Major, RV 413"
INDEX 01 26:59:27
TRACK 10 AUDIO
TITLE "Allegro"
PERFORMER "Concerto In C Minor, RV 401"
INDEX 00 29:51:20
INDEX 01 29:52:70
TRACK 11 AUDIO
TITLE "Adagio"
PERFORMER "Concerto In C Minor, RV 401"
INDEX 01 34:29:22
TRACK 12 AUDIO
TITLE "Allegro ma non molto"
PERFORMER "Concerto In C Minor, RV 401"
INDEX 01 36:47:65
TRACK 13 AUDIO
TITLE "Allegro"
PERFORMER "Concerto In A Minor, RV 422"
INDEX 00 40:08:10
INDEX 01 40:12:47
TRACK 14 AUDIO
TITLE "Largo"
PERFORMER "Concerto In A Minor, RV 422"
INDEX 01 43:29:60
TRACK 15 AUDIO
TITLE "Allegro"
PERFORMER "Concerto In A Minor, RV 422"
INDEX 01 45:41:57
TRACK 16 AUDIO
TITLE "Allegro"
PERFORMER "Concerto In C Major, RV 400"
INDEX 00 48:42:12
INDEX 01 48:45:00
TRACK 17 AUDIO
TITLE "Largo"
PERFORMER "Concerto In C Major, RV 400"
INDEX 01 51:51:22
TRACK 18 AUDIO
TITLE "Allegro non molto"
PERFORMER "Concerto In C Major, RV 400"
INDEX 01 54:49:62
Доп. информация:
Vol.1 - http://teatrix.ru/viewtopic.php?t=4957505
Vol.2 - http://teatrix.ru/viewtopic.php?t=4957513
Vol.3 - http://teatrix.ru/viewtopic.php?t=4957518
Vol.4 - http://teatrix.ru/viewtopic.php?t=4957526
[teatrix.ru].t20560.torrent 
Торрент: Зарегистрирован [ 2016-03-20 00:05 ] · CDA76AA67D9EE1C3F8B1C33105C3825A2CE099C2

Скачать .torrent

Скачать

12 KB

Статус: проверено
Скачан: 0 раз
Размер: 268 MB
terms.php



Быстрый ответ

Имя:

      
Для отправки сообщений необходимо включить JavaScript
Показать сообщения:    

Текущее время: 09-Дек 04:58

Часовой пояс: UTC + 3


Вы можете начинать темы
Вы можете отвечать на сообщения
Вы не можете редактировать свои сообщения
Вы не можете удалять свои сообщения
Вы не можете голосовать в опросах
Вы не можете прикреплять файлы к сообщениям
Вы можете скачивать файлы