(Classical) Vivaldi - Cello Concerti, Vol.3 (Raphael Wallfisch, Nicholas Kraemer) - 1995, FLAC (image+.cue) lossless


Статистика раздачи [Обновить пиров]
Размер:  285 MB   |    Зарегистрирован:  8 месяцев 19 дней   |    Скачан:  1 раз

Полного источника не было: 2 месяца 4 дня

 
   
 
 
 

[Цитировать]

Vivaldi - Cello Concerti, Vol.3 (Raphael Wallfisch, Nicholas Kraemer)
Жанр: Classical
Страна-производитель диска: Germany
Год издания диска: 1995
Издатель (лейбл): Naxos
Номер по каталогу: 8.550909
Дата записи: 1994
Аудиокодек: FLAC
Тип рипа: image+.cue
Битрейт аудио: lossless
Продолжительность: 62:11
Источник: собственный рип
сайт-источник/ник/другое: Из личной коллекции
Наличие сканов в содержимом раздачи: да
Треклист:
Vivaldi, Antonio
Cello Concerto in B-Flat Major, RV 423
1. I. Allegro 00:03:17
2. II. Largo 00:01:48
3. III. Allegro 00:03:56
Cello Concerto in C Minor, RV 402
4. I. Allegro 00:03:30
5. II. Adagio 00:02:45
6. III. Allegro 00:02:39
Cello Concerto in A Minor, RV 418
7. I. Allegro 00:03:57
8. II. Largo 00:02:14
9. III. Allegro 00:03:10
Cello Concerto in D Major, RV 403
10. I. Allegro 00:03:18
11. II. Andante e spiritoso 00:01:39
12. III. Allegro 00:02:47
Cello Concerto in B Minor, RV 424
13. I. Allegro non molto 00:04:36
14. II. Largo 00:02:27
15. III. Allegro 00:03:53
Cello Concerto in D Minor, RV 407
16. I. Allegro 00:03:23
17. II. Largo e sempre piano 00:02:51
18. III. Allegro 00:02:18
Cello Concerto in E Minor, RV 409
19. I. Adagio - Allegro molto 00:03:44
20. II. Allegro - Adagio 00:01:28
21. III. Allegro 00:02:31
Исполнители:
Raphael Wallfisch - cello
City of London Sinfonia, Nicholas Kraemer - conductor

Лог создания рипа

Exact Audio Copy V1.0 beta 3 from 29. August 2011
EAC extraction logfile from 26. February 2015, 19:52
City of London Sinfonia / Vivaldi: Cello Concerti. Vol. 3
Used drive : HL-DT-STDVDRAM GSA-T40N Adapter: 0 ID: 0
Read mode : Secure
Utilize accurate stream : Yes
Defeat audio cache : Yes
Make use of C2 pointers : No
Read offset correction : 667
Overread into Lead-In and Lead-Out : No
Fill up missing offset samples with silence : Yes
Delete leading and trailing silent blocks : No
Null samples used in CRC calculations : Yes
Used interface : Native Win32 interface for Win NT & 2000
Used output format : User Defined Encoder
Selected bitrate : 32 kBit/s
Quality : High
Add ID3 tag : No
Command line compressor : C:\Program Files\Exact Audio Copy\Flac\flac.exe
Additional command line options : -V -8 -T "Date=%year%" -T "Genre=%genre%" %source%
TOC of the extracted CD
Track | Start | Length | Start sector | End sector
---------------------------------------------------------
1 | 0:00.00 | 3:17.07 | 0 | 14781
2 | 3:17.07 | 1:48.23 | 14782 | 22904
3 | 5:05.30 | 3:55.65 | 22905 | 40594
4 | 9:01.20 | 3:30.50 | 40595 | 56394
5 | 12:31.70 | 2:44.30 | 56395 | 68724
6 | 15:16.25 | 2:38.65 | 68725 | 80639
7 | 17:55.15 | 3:57.52 | 80640 | 98466
8 | 21:52.67 | 2:13.15 | 98467 | 108456
9 | 24:06.07 | 3:10.33 | 108457 | 122739
10 | 27:16.40 | 3:17.70 | 122740 | 137584
11 | 30:34.35 | 1:39.12 | 137585 | 145021
12 | 32:13.47 | 2:46.53 | 145022 | 157524
13 | 35:00.25 | 4:35.62 | 157525 | 178211
14 | 39:36.12 | 2:27.03 | 178212 | 189239
15 | 42:03.15 | 3:53.45 | 189240 | 206759
16 | 45:56.60 | 3:22.65 | 206760 | 221974
17 | 49:19.50 | 2:50.45 | 221975 | 234769
18 | 52:10.20 | 2:17.72 | 234770 | 245116
19 | 54:28.17 | 3:44.25 | 245117 | 261941
20 | 58:12.42 | 1:27.33 | 261942 | 268499
21 | 59:40.00 | 2:31.10 | 268500 | 279834
Range status and errors
Selected range
Filename D:\Rip\Vivaldi.Cello_Concerti,Vol.3-Raphael_Wallfisch,Nicholas_Kraemer,1994(Naxos,8.550909)\City of London Sinfonia - Vivaldi- Cello Concerti. Vol. 3.wav
Peak level 87.0 %
Extraction speed 4.2 X
Range quality 100.0 %
Test CRC 9F2D79C0
Copy CRC 9F2D79C0
Copy OK
No errors occurred
AccurateRip summary
Track 1 accurately ripped (confidence 10) [5146138A] (AR v2)
Track 2 accurately ripped (confidence 10) [810D4D6B] (AR v2)
Track 3 accurately ripped (confidence 10) [0B493904] (AR v2)
Track 4 accurately ripped (confidence 10) [611E145A] (AR v2)
Track 5 accurately ripped (confidence 10) [BAFDB644] (AR v2)
Track 6 accurately ripped (confidence 10) [E88FC7E4] (AR v2)
Track 7 accurately ripped (confidence 10) [1F37021D] (AR v2)
Track 8 accurately ripped (confidence 10) [9D57DF81] (AR v2)
Track 9 accurately ripped (confidence 9) [3558F444] (AR v2)
Track 10 accurately ripped (confidence 9) [BFC3FB94] (AR v2)
Track 11 accurately ripped (confidence 10) [0B6D1CAB] (AR v2)
Track 12 accurately ripped (confidence 10) [9C70D364] (AR v2)
Track 13 accurately ripped (confidence 9) [25869BCA] (AR v2)
Track 14 accurately ripped (confidence 10) [9C0699D1] (AR v2)
Track 15 accurately ripped (confidence 10) [067ABDA8] (AR v2)
Track 16 accurately ripped (confidence 10) [1CE276B0] (AR v2)
Track 17 accurately ripped (confidence 10) [02A06936] (AR v2)
Track 18 accurately ripped (confidence 10) [95C8D96B] (AR v2)
Track 19 accurately ripped (confidence 9) [46D7490F] (AR v2)
Track 20 accurately ripped (confidence 10) [71BC8C23] (AR v2)
Track 21 accurately ripped (confidence 10) [EFAE7DC5] (AR v2)
All tracks accurately ripped
End of status report
==== Log checksum 9DC9DE987BD9D583A79E7218FA30752B3B1C82D57AB7761B00E7DD2B23E4558F ====

Содержание индексной карты (.CUE)

REM GENRE Classical
REM DATE 1995
REM DISCID 360E9315
REM COMMENT "ExactAudioCopy v1.0b3"
PERFORMER "City of London Sinfonia"
TITLE "Vivaldi: Cello Concerti. Vol. 3"
FILE "City of London Sinfonia - Vivaldi- Cello Concerti. Vol. 3.flac" WAVE
TRACK 01 AUDIO
TITLE "Allegro"
PERFORMER "Concerto in B Flat Major, RV 423"
INDEX 01 00:00:00
TRACK 02 AUDIO
TITLE "Largo"
PERFORMER "Concerto in B Flat Major, RV 423"
INDEX 01 03:17:07
TRACK 03 AUDIO
TITLE "Allegro"
PERFORMER "Concerto in B Flat Major, RV 423"
INDEX 01 05:05:30
TRACK 04 AUDIO
TITLE "Allegro"
PERFORMER "Concerto in C Minor, RV 402"
INDEX 00 08:58:53
INDEX 01 09:01:20
TRACK 05 AUDIO
TITLE "Adagio"
PERFORMER "Concerto in C Minor, RV 402"
INDEX 01 12:31:70
TRACK 06 AUDIO
TITLE "Allegro"
PERFORMER "Concerto in C Minor, RV 402"
INDEX 01 15:16:25
TRACK 07 AUDIO
TITLE "Allegro"
PERFORMER "Concerto in A Minor, RV 418"
INDEX 00 17:52:02
INDEX 01 17:55:15
TRACK 08 AUDIO
TITLE "Largo"
PERFORMER "Concerto in A Minor, RV 418"
INDEX 01 21:52:67
TRACK 09 AUDIO
TITLE "Allegro"
PERFORMER "Concerto in A Minor, RV 418"
INDEX 01 24:06:07
TRACK 10 AUDIO
TITLE "Allegro"
PERFORMER "Concerto in D Major, RV 403"
INDEX 00 27:11:28
INDEX 01 27:16:40
TRACK 11 AUDIO
TITLE "Andante e spiritoso"
PERFORMER "Concerto in D Major, RV 403"
INDEX 01 30:34:35
TRACK 12 AUDIO
TITLE "Allegro"
PERFORMER "Concerto in D Major, RV 403"
INDEX 01 32:13:47
TRACK 13 AUDIO
TITLE "Allegro non molto"
PERFORMER "Concerto in B Minor, RV 424"
INDEX 00 34:55:05
INDEX 01 35:00:25
TRACK 14 AUDIO
TITLE "Largo"
PERFORMER "Concerto in B Minor, RV 424"
INDEX 01 39:36:12
TRACK 15 AUDIO
TITLE "Allegro"
PERFORMER "Concerto in B Minor, RV 424"
INDEX 01 42:03:15
TRACK 16 AUDIO
TITLE "Allegro"
PERFORMER "Concerto in D Minor, RV 407"
INDEX 00 45:50:20
INDEX 01 45:56:60
TRACK 17 AUDIO
TITLE "Largo e sempre piano"
PERFORMER "Concerto in D Minor, RV 407"
INDEX 01 49:19:50
TRACK 18 AUDIO
TITLE "Allegro"
PERFORMER "Concerto in D Minor, RV 407"
INDEX 01 52:10:20
TRACK 19 AUDIO
TITLE "Adagio Allegro molto"
PERFORMER "Concerto in E Minor, RV 409"
INDEX 00 54:26:20
INDEX 01 54:28:17
TRACK 20 AUDIO
TITLE "Allegro Adagio"
PERFORMER "Concerto in E Minor, RV 409"
INDEX 01 58:12:42
TRACK 21 AUDIO
TITLE "Allegro"
PERFORMER "Concerto in E Minor, RV 409"
INDEX 01 59:40:00
Доп. информация:
Vol.1 - http://teatrix.ru/viewtopic.php?t=4957505
Vol.2 - http://teatrix.ru/viewtopic.php?t=4957513
Vol.3 - http://teatrix.ru/viewtopic.php?t=4957518
Vol.4 - http://teatrix.ru/viewtopic.php?t=4957526
[teatrix.ru].t20562.torrent 
Торрент: Зарегистрирован [ 2016-03-20 00:06 ] · DE957A83D1483760F0E6FE77AC0C4472FEC09943

Скачать .torrent

Скачать

12 KB

Статус: проверено
Скачан: 1 раз
Размер: 285 MB
terms.php



Быстрый ответ

Имя:

      
Для отправки сообщений необходимо включить JavaScript
Показать сообщения:    

Текущее время: 08-Дек 17:20

Часовой пояс: UTC + 3


Вы можете начинать темы
Вы можете отвечать на сообщения
Вы не можете редактировать свои сообщения
Вы не можете удалять свои сообщения
Вы не можете голосовать в опросах
Вы не можете прикреплять файлы к сообщениям
Вы можете скачивать файлы