В гостях у Эльдара Рязанова. Творческий вечер Сергея Пускепалиса (Эмма Абайдулина, Елена Никитан) [2015 г., Творческий вечер, SATRip] Киноклуб "Эльдар"


Статистика раздачи [Обновить пиров]
Размер:  882 MB   |    Зарегистрирован:  8 месяцев 15 дней   |    Скачан:  0 раз

Полного источника не было: Никогда

 
   
 
 
 

[Цитировать]

В гостях у Эльдара Рязанова. Творческий вечер Сергея Пускепалиса Год выпуска: 2015.
Жанр: Творческий вечер.
Продолжительность: 01:03:35.
Режиссеры: Эмма Абайдулина, Елена Никитан.
Участники вечера:
Дмитрий Хмелёв, Станислав Дужников, Юрий Кравец, Игорь Золотовицкий, Константин Тарасов, Глеб Пускепалис, Вера Сторожева, Алексей Слаповский, Олег Погодин, Ирина Евдокимова.
Описание:
Сергей Витауто Пускепалис - актёр театра и кино, известный театральный режиссёр, заслуженный артист России.
Как киноактёр зрителям он запомнился по ролям в фильмах "Простые вещи", "Как я провел этим летом", "Коктебель", "Жизнь и судьба", "Крик совы". Сергей Пускепалис рассказывает о начале своего пути в профессии, о встрече с известными людьми, которые повлияли на его творческий выбор и судьбу, о начале пути в кинорежиссуре.

Дополнительная информация:
Страна: Россия .
Выпущено: © ГТРК "Культура".
Творческий вечер состоялся в Киноклубе "Эльдар" 29 января 2015 года.
Автор сценария и режиссер вечера: Эмма Абайдулина.
Режиссёр телеверсии: Елена Никитан.
Оператор-постановщик: Виктор Браздников.


Трансляция ГТРК "Культура" в 21:35 23.02.2015г.
Релиз
Рип lesik689 .
Качество видео:...SATRip
Формат:.................AVI
Видео:..704x400 (1.76:1), 25 fps, XviD MPEG-4 ~1801 kbps avg, 0.26 bit/pixel
Аудио:..48 kHz, MPEG Layer 3, 2 ch, ~128.00 kbps avg

Отчет Media Info

General
Complete name : V.gostyah.u.Eldara.Ryazanova.Tvorcheskiy.vecher.Sergeya.Puskepalisa.2015.XviD.SATRip.fenixclub.avi
Format : AVI
Format/Info : Audio Video Interleave
File size : 882 MiB
Duration : 1h 3mn
Overall bit rate : 1 939 Kbps
Writing application : VirtualDubMod 1.5.10.2 (build 2542/release)
Writing library : VirtualDubMod build 2542/release
Video
ID : 0
Format : MPEG-4 Visual
Format profile : Advanced Simple@L5
Format settings, BVOP : 2
Format settings, QPel : No
Format settings, GMC : No warppoints
Format settings, Matrix : Default (MPEG)
Muxing mode : Packed bitstream
Codec ID : XVID
Codec ID/Hint : XviD
Duration : 1h 3mn
Bit rate : 1 802 Kbps
Width : 704 pixels
Height : 400 pixels
Display aspect ratio : 5:4
Original display aspect rat : 4:3
Frame rate : 25.000 fps
Color space : YUV
Chroma subsampling : 4:2:0
Bit depth : 8 bits
Scan type : Progressive
Compression mode : Lossy
Bits/(Pixel*Frame) : 0.256
Stream size : 819 MiB (93%)
Writing library : XviD 64
Audio
ID : 1
Format : MPEG Audio
Format version : Version 1
Format profile : Layer 3
Mode : Joint stereo
Mode extension : MS Stereo
Codec ID : 55
Codec ID/Hint : MP3
Duration : 1h 3mn
Bit rate mode : Constant
Bit rate : 128 Kbps
Channel(s) : 2 channels
Sampling rate : 48.0 KHz
Compression mode : Lossy
Stream size : 58.2 MiB (7%)
Alignment : Split accross interleaves
Interleave, duration : 40 ms (1.00 video frame)
Interleave, preload duratio : 500 ms

Скриншоты

Альтернативный хост

[teatrix.ru].t20563.torrent 
Торрент: Зарегистрирован [ 2016-03-20 00:06 ] · 32D58E43A3EE027D74C4F77F595CA7FC8F60275E

Скачать .torrent

Скачать

18 KB

Статус: проверено
Скачан: 0 раз
Размер: 882 MB
terms.php



Быстрый ответ

Имя:

      
Для отправки сообщений необходимо включить JavaScript
Показать сообщения:    

Текущее время: 04-Дек 04:59

Часовой пояс: UTC + 3


Вы можете начинать темы
Вы можете отвечать на сообщения
Вы не можете редактировать свои сообщения
Вы не можете удалять свои сообщения
Вы не можете голосовать в опросах
Вы не можете прикреплять файлы к сообщениям
Вы можете скачивать файлы