Три плюс два. Версия курортного романа (Иван Цыбин, Андрей Луков) [июнь / 2014, Документальный фильм, TVRip]


Статистика раздачи [Обновить пиров]
Размер:  558 MB   |    Зарегистрирован:  8 месяцев 16 дней   |    Скачан:  0 раз

Полного источника не было: Никогда

 
   
 
 
 

[Цитировать]

Три плюс два. Версия курортного романа
Дата/Год выпуска: июнь / 2014
Страна: Россия
Жанр: Документальный фильм
Продолжительность: 00:51:58
Перевод: Не требуется
Оригинальная аудиодорожка: русский
Телеканал: Россия, Первый канал
Режиссер: Иван Цыбин, Андрей Луков
Описание: Самая легкая и солнечная комедия нашего кинематографа появилась с легкой руки классика советской литературы – Сергея Михалкова. Фильм мгновенно завоевал сердца зрителей, и возвел молодых и малоизвестных актеров в категорию всесоюзных звезд. Как снимали легендарное кино, какие экспромты рождались на площадке и где проходили съемки – об этом расскажут актеры Наталья Фатеева и Геннадий Нилов. Участники нашего фильма откроют и еще одну тайну. Оказывается, картина была снята в двух вариантах – обычном и широкоэкранном. Некоторые фрагменты "широкоэкранки" не вошли в привычную для нас версию, которая оказалась на 10 минут короче оригинала. Мы впервые покажем кадры, которые никогда не видел зритель. И узнаем, чем неизвестная копия отличается от знакомой.
Трансляция спутникового канала: Первый канал HD
качество: TVRip
формат: AVI
Видео: 720x400 (16:9), 25 fps, XviD, 1299 Кбит/с
Аудио: AC3, 2 ch, 192 Кбит/с, частота : 48,0 КГц, битовая глубина : 16 бит

MediaInfo

Общее
Полное имя : C:\Tri.pljus.dva.Versija.kurortnogo.romana.HDTVRip.MediaClub.avi
Формат : AVI
Формат/Информация : Audio Video Interleave
Размер файла : 558 Мбайт
Продолжительность : 51 м.
Общий поток : 1501 Кбит/сек
Программа кодирования : VirtualDubMod 1.5.10.3 | www.virtualdub-fr.org || (build 2550/release)
Библиотека кодирования : VirtualDubMod build 2550/release
Видео
Идентификатор : 0
Формат : MPEG-4 Visual
Профиль формата : Advanced Simple@L5
Параметр BVOP формата : 2
Параметр QPel формата : Нет
Параметр GMC формата : Без точки перехода
Параметр матрицы формата : Default (H.263)
Режим смешивания : Сжатый битовый поток
Идентификатор кодека : XVID
Идентификатор кодека/Подсказка : XviD
Продолжительность : 51 м.
Битрейт : 1299 Кбит/сек
Ширина : 720 пикс.
Высота : 400 пикс.
Соотношение сторон : 16:9
Частота кадров : 25,000 кадр/сек
Цветовое пространство : YUV
Подвыборка цветности : 4:2:0
Битовая глубина : 8 бит
Тип развёртки : Прогрессивная
Метод сжатия : С потерями
Бит/(Пиксели*Кадры) : 0.180
Размер потока : 483 Мбайт (87%)
Библиотека кодирования : XviD 1.2.1 (UTC 2008-12-04)
Аудио
Идентификатор : 1
Формат : AC-3
Формат/Информация : Audio Coding 3
Расширение режима : CM (complete main)
Идентификатор кодека : 2000
Продолжительность : 51 м.
Вид битрейта : Постоянный
Битрейт : 192 Кбит/сек
Канал(ы) : 2 канала(ов)
Расположение каналов : Front: L R
Частота : 48,0 КГц
Битовая глубина : 16 бит
Метод сжатия : С потерями
Размер потока : 71,4 Мбайт (13%)
Выравнивание : Разделение по промежуткам
Продолжительность промежутка : 40 мс. (1,00 видеокадр)
Время предзагрузки промежутка : 500 ms

Скриншоты


[teatrix.ru].t20565.torrent 
Торрент: Зарегистрирован [ 2016-03-20 00:06 ] · 6D002B110CD83136F8D81661C192130F7DE00EE4

Скачать .torrent

Скачать

11 KB

Статус: проверено
Скачан: 0 раз
Размер: 558 MB
terms.php



Показать сообщения:    

Текущее время: 05-Дек 13:32

Часовой пояс: UTC + 3


Вы не можете начинать темы
Вы не можете отвечать на сообщения
Вы не можете редактировать свои сообщения
Вы не можете удалять свои сообщения
Вы не можете голосовать в опросах
Вы не можете прикреплять файлы к сообщениям
Вы можете скачивать файлы