[TR24][SM][OF] George Enescu - Piano Quartets Nos 1 and 2 - Schubert Ensemble - 2011 (Classical)


Статистика раздачи [Обновить пиров]
Размер:  1.12 GB   |    Зарегистрирован:  8 месяцев 14 дней   |    Скачан:  1 раз

Полного источника не было: 21 день

 
   
 
 
 

[Цитировать]

·George Enescu (1881 – 1955)Жанр: Chamber Music
Носитель: Official Digital Download
Год издания диска: 2011
Издатель(лейбл): Chandos Records
Номер по каталогу: CHAN 10672
Продолжительность: 66:24
Наличие сканов в содержимом раздачи: cover & booklet
Контейнер: FLAC (*.flac)
Разрядность: 24/96
Количество каналов: 2.0
Формат: tracks
Источник: theclassicalshop.net
Pелизер: WEB (thanks to the original customer)
Schubert Ensemble http://www.theclassicalshop.net/Details.aspx?CatalogueNumber=CHAN%2010672

Треклист

Piano Quartet No. 1, Op. 16 (1909)in D major
for Piano, Violin, Viola and Cello
À Madame Michel Ephrussi
01 I Allegro moderato – Poco meno mosso – Tempo I – A tempo animato – A tempo agitato molto – Sempre animando – Sempre più agitato – Animando molto – Poco allargando – A tempo animato 14:39
02 II Andante mesto – A tempo tranquillo – Animando poco a poco – Animato – A tempo I – Un poco più lento 12:33
03 III Vivace – Un poco meno mosso – A tempo I – Meno mosso – Animando poco a poco – Più animato – Vivace non troppo – L’istesso tempo – Accelerando molto – Quasi moderato – Presto – Tempo I 11:43
Piano Quartet No. 2, Op. 30 (1944)
in D minor
for Piano, Violin, Viola, and Cello

À la mémoire de mon maître Gabriel Fauré
04 I Allegretto moderato 8:58
05 II Andante pensieroso ed espressivo - Un poco più animato - A tempo I 7:48
06 III Con moto moderato - Allegro agitato 10:43

Schubert Ensemble


Simon Blendis violin
Douglas Paterson viola
Jane Salmon cello
William Howard piano

Dynamic Range Meter

foobar2000 1.2.6 / Dynamic Range Meter 1.1.1
log date: 2015-03-09 21:44:31
--------------------------------------------------------------------------------
Analyzed: Simon Blendis, Douglas Paterson, Jane Salmon, William Howard / Enescu: Piano Quartets Nos. 1 & 2
--------------------------------------------------------------------------------
DR Peak RMS Duration Track
--------------------------------------------------------------------------------
DR15 -0.33 dB -21.06 dB 14:47 01-Quartet No. 1 in D major, Op. 16 - I. Allegro moderato – Poco meno mosso – Tempo I – A tempo animato – A tempo agitato molto – Sempre animando – Sempre più agitato – Animando molto – Poco allargando – A tempo animato
DR15 -3.64 dB -25.32 dB 12:38 02-Quartet No. 1 in D major, Op. 16 - II. Andante mesto – A tempo tranquillo – Animando poco a poco – Animato – A tempo I – Un poco più lento
DR15 -0.16 dB -21.68 dB 11:56 03-Quartet No. 1 in D major, Op. 16 - III. Vivace – Un poco meno mosso – A tempo I – Meno mosso – Animando poco a poco – Più animato – Vivace non troppo – L’istesso tempo – Accelerando molto – Quasi moderato – Presto – Tempo I
DR14 -3.19 dB -25.52 dB 9:01 04-Quartet No. 2 in D minor, Op. 30 - I. Allegro moderato
DR13 -7.44 dB -27.21 dB 7:53 05-Quartet No. 2 in D minor, Op. 30 - II. Andante pensieroso ed espressivo – Un poco più animato – A tempo I
DR13 -2.45 dB -21.67 dB 10:42 06-Quartet No. 2 in D minor, Op. 30 - III. Con moto moderato – Allegro agitato
--------------------------------------------------------------------------------
Number of tracks: 6
Official DR value: DR14
Samplerate: 96000 Hz
Channels: 2
Bits per sample: 24
Bitrate: 2406 kbps
Codec: FLAC
================================================================================
[teatrix.ru].t20567.torrent 
Торрент: Зарегистрирован [ 2016-03-20 00:11 ] · CA1855B8E729455218CFC32DCFC7A4D0B0D908C5

Скачать .torrent

Скачать

12 KB

Статус: проверено
Скачан: 1 раз
Размер: 1.12 GB
terms.php



Быстрый ответ

Имя:

      
Для отправки сообщений необходимо включить JavaScript
Показать сообщения:    

Текущее время: 03-Дек 07:35

Часовой пояс: UTC + 3


Вы можете начинать темы
Вы можете отвечать на сообщения
Вы не можете редактировать свои сообщения
Вы не можете удалять свои сообщения
Вы не можете голосовать в опросах
Вы не можете прикреплять файлы к сообщениям
Вы можете скачивать файлы