[TR24][OF] Johannes Brahms: Symphony No. 2, Tragic Overture, Academic Festival Overture - Budapest Festival Orchestra, Iván (Ivan) Fischer - 2014 (Classical)

DL-List and Torrent activity [Update пиров]
Size:  2.03 GB   |    Registered:  7 months 3 days   |    Completed:  0 times

Seeder not seen: Never



Johannes Brahms
Symphony No. 2
Tragic Overture · Academic Festival Overture

Budapest Festival Orchestra · Iván Fischer
-Год издания: 2014 | Жанр: Classical
Издатель: Channel Classics Records
Продолжительность: 01:08:22
Наличие сканов: Sleeve, Digital Booklet- -Контейнер: FLAC (*.flac) | Тип рипа: tracks
Разрядность: 24bit / 192kHz | Количество каналов: 2.0
-ТреклистJohannes Brahms (1833-1897)
Symphony No.2 in D Major, Op. 73
01.I. Allegro non troppo (20:13)
02. II. Adagio non troppo (9:09)
03. III. Allegretto grazioso (5:43)
04. IV. Presto ma non assai (9:44)
Tragic Overture in D minor, Op. 81
05. Tragic Overture in D minor (13:01)
Academic Festival Overture in C Minor, Op. 80
06. Academic Festival Overture in C Minor (10:32)

О релизе

A remarkable, transparent purity can be heard in Brahms’s Second symphony. It is a sharp contrast to the huge arsenal of ideas collected in the First Symphony, which Brahms had worked on for many years. Here in his Second he shows us his masterful skill in developing large-scale architecture from the simplest motifs. To give the first of these to the horns is a logical choice; Brahms always used natural horns and resisted the more modern instruments. Horns can ideally explore the purest of all musical ideas: the journey through the overtones.
Similar purity is present in all the themes. When at the start the basses step down a semitone and step back again, nobody could guess what a rich new world would develop from this cell. The last movement is also built on a simple tool: repeated, equal notes follow each other in regimental order (a classical tradition often heard in final movements by Haydn or Mozart). Is this Brahms’s most nature-related symphony? Considering the complicated organisms that develop from the simplest cells, yes, it is. Brahms certainly has the divine, creative talent to show us how this process can work in music. --Iván Fischer
“indeed Fischer and his players seem content to let the untroubled optimism of the symphony shine through...The six-minute scherzo, often likened with some justification to Schubert, is a particular delight...Fischer’s brass are, once again, on top-notch form here – neither too timid nor too ostentatiously forceful.” --Presto Classical
“Who needs another Brahms Second Symphony? Well, after Iván Fischer’s exhilarating Brahms No 1, we can all benefit from the intense freshness and lyricism that his Budapest forces bring to this music, along with their roots in eastern Europe...Fischer is superb at clarifying the textures.” --The Observer
“it is even more integrated in thematic structure than the First, and it is that balance between detailed focus and spontaneity that Ivan Fischer and his Budapest Festival Orchestra strike so convincingly here. Fischer's moderate speeds ensure that his subtle tempo modifications always sound natural.” --BBC Music Magazin
Budapest Festival Orchestra
Iván Fischer, conductor
Palace of Arts, Budapest, February 2012

ОтчётыДинамический диапазон

foobar2000 1.2.2 / Dynamic Range Meter 1.1.1
log date: 2015-03-09 18:54:26
Analyzed: Budapest Festival Orchestra, Iván Fischer / Brahms: Symphony no. 2; Tragic Overture; Academic Festival Overture
DR Peak RMS Duration Track
DR14 0.00 dB -19.89 dB 20:13 ?-Symphony No.2 in D Major, Op. 73 - I. Allegro non troppo
DR15 0.00 dB -21.02 dB 9:09 ?-Symphony No.2 in D Major, Op. 73 - II. Adagio non troppo
DR14 -4.58 dB -25.79 dB 5:43 ?-Symphony No.2 in D Major, Op. 73 - III. Allegretto grazioso
DR12 0.00 dB -17.19 dB 9:44 ?-Symphony No.2 in D Major, Op. 73 - IV. Presto ma non assai
DR15 0.00 dB -20.50 dB 13:01 ?-Tragic Overture in D minor, Op. 81
DR12 0.00 dB -17.79 dB 10:32 ?-Academic Festival Overture in C Minor, Op. 80
Number of tracks: 6
Official DR value: DR14
Samplerate: 192000 Hz
Channels: 2
Bits per sample: 24
Bitrate: 4295 kbps
Codec: FLAC

Скриншот спектра частот

Доп. информация

При скачивании, если необходимо, переименуйте папку, в которой будет находиться альбомБольшая просьба к скачавшим поддерживать раздачу! Помогайте другим, ведь вам тоже может понадобиться помощь!Не забываем говорить "Спасибо"!Комментарии приветствуются!
Ivan Fischer Hi-Res
Torrent: Registered [ 2016-03-20 00:10 ] · BC7552DDFEB3BC139E57F8C5E0996DBB2A4A89FD

Download .torrent


11 KB

Status: checked
Completed: 0 times
Size: 2.03 GB

Quick Reply


Heads necessary to send messages to enable JavaScript
Display posts:    

Current time is: 23-Oct 12:36

All times are UTC + 3

You can post new topics in this forum
You can reply to topics in this forum
You cannot edit your posts in this forum
You cannot delete your posts in this forum
You cannot vote in polls in this forum
You cannot attach files in this forum
You can download files in this forum