(Classical) Joonas Kokkonen - ...durch einen Spiegel...; Wind Quintet; Sinfonia da camera; Il paesaggio - Lahti Symphony Orchestra, Ulf Soderblom, Osmo Vanska, Sinfonia Lahti Wind Quintet, Jukka Tiensuu - 1991, FLAC (image+.cue) lossless


 

[Цитировать]

Joonas Kokkonen - ...durch einen Spiegel...; Wind Quintet; Sinfonia da camera; Il paesaggio - Lahti Symphony Orchestra, Ulf Söderblom, Osmo Vänskä, Sinfonia Lahti Wind Quintet, Jukka Tiensuu
Жанр: Classical
Страна-производитель диска: Sweden
Год издания диска: 1991
Издатель (лейбл): BIS
Номер по каталогу: BIS-CD-528
Дата записи: 1991
Аудиокодек: FLAC
Тип рипа: image+.cue
Битрейт аудио: lossless
Продолжительность: 60:46
Источник: собственный рип
Наличие сканов в содержимом раздачи: да
Треклист:
Joonas Kokkonen (1921-1996)
[1] ...durch einen Spiegel... *
Metamorphosis for Twelve Strings and Harpsichord
[2]-[5] Wind Quintet **
[6]-[9] Sinfonia da camera ***
[10] Il paesaggio ***
Musica per orchestra da camera
Исполнители:
Lahti Symphony Orchestra
* Ulf Söderblom and *** Osmo Vänskä conductors
** Sinfonia Lahti Wind Quintet
Jukka Tiensuu harpsichord

Лог создания рипа

Exact Audio Copy V1.0 beta 3 from 29. August 2011
EAC extraction logfile from 30. November 2014, 17:45
Lahti Symphony Orchestra, Osmo Vanska / Kokkonen - Works for Chamber Orchestra; Wind Quintet
Used drive : HL-DT-STDVDRAM GU70N Adapter: 0 ID: 0
Read mode : Secure
Utilize accurate stream : Yes
Defeat audio cache : Yes
Make use of C2 pointers : No
Read offset correction : 48
Overread into Lead-In and Lead-Out : No
Fill up missing offset samples with silence : Yes
Delete leading and trailing silent blocks : No
Null samples used in CRC calculations : Yes
Used interface : Native Win32 interface for Win NT & 2000
Used output format : User Defined Encoder
Selected bitrate : 128 kBit/s
Quality : High
Add ID3 tag : No
Command line compressor : C:\Program Files (x86)\Exact Audio Copy\Flac\flac.exe
Additional command line options : -V -8 -T "Date=%year%" -T "Genre=%genre%" %source%
TOC of the extracted CD
Track | Start | Length | Start sector | End sector
---------------------------------------------------------
1 | 0:00.00 | 19:50.00 | 0 | 89249
2 | 19:50.00 | 4:59.00 | 89250 | 111674
3 | 24:49.00 | 2:26.00 | 111675 | 122624
4 | 27:15.00 | 2:38.00 | 122625 | 134474
5 | 29:53.00 | 3:27.00 | 134475 | 149999
6 | 33:20.00 | 5:15.00 | 150000 | 173624
7 | 38:35.00 | 4:49.00 | 173625 | 195299
8 | 43:24.00 | 2:22.00 | 195300 | 205949
9 | 45:46.00 | 5:06.00 | 205950 | 228899
10 | 50:52.00 | 9:54.00 | 228900 | 273449
Range status and errors
Selected range
Filename C:\temp\BIS-CD-0528 - Kokkonen - Works for Chamber Orchestra; Wind Quintet\Kokkonen - Works for Chamber Orchestra; Wind Quintet.wav
Peak level 84.9 %
Extraction speed 2.0 X
Range quality 99.9 %
Test CRC E2D8D388
Copy CRC E2D8D388
Copy OK
No errors occurred
AccurateRip summary
Track 1 accurately ripped (confidence 2) [F2C4BEC3] (AR v2)
Track 2 accurately ripped (confidence 2) [C38F9244] (AR v2)
Track 3 accurately ripped (confidence 2) [9658F8A5] (AR v2)
Track 4 accurately ripped (confidence 2) [9DB49815] (AR v2)
Track 5 accurately ripped (confidence 2) [6615E95D] (AR v2)
Track 6 accurately ripped (confidence 2) [36C6A511] (AR v2)
Track 7 accurately ripped (confidence 2) [2F80784E] (AR v2)
Track 8 accurately ripped (confidence 2) [35A0BC03] (AR v2)
Track 9 accurately ripped (confidence 2) [FD9C142C] (AR v2)
Track 10 accurately ripped (confidence 2) [6A25FA66] (AR v2)
All tracks accurately ripped
End of status report
==== Log checksum B80E9A60EA6845A92395DFFCC32173A5628591D1841FAC3DD1B167245F5E9389 ====



Показать сообщения:    

Текущее время: 03-Дек 16:43

Часовой пояс: UTC + 3


Вы не можете начинать темы
Вы не можете отвечать на сообщения
Вы не можете редактировать свои сообщения
Вы не можете удалять свои сообщения
Вы не можете голосовать в опросах
Вы не можете прикреплять файлы к сообщениям
Вы не можете скачивать файлы