(Opera, Vocal) Peter Dvorsky - Italian and French Opera Arias (Highlights of tenor repertoire by Giuseppe Verdi, Giacomo Puccini, Charles Gounod, Jules Massenet, Georges Bizet) - 1989 - concert performance / 1992, FLAC (tracks), lossless


 

[Цитировать]

Peter Dvorský - Italian and French Opera Arias (Highlights of tenor repertoire by Giuseppe Verdi, Giacomo Puccini, Charles Gounod, Jules Massenet, Georges Bizet)
Жанр: Opera, Vocal
Страна-производитель диска: США
Год издания диска: 1992
Издатель (лейбл): Naxos
Дата записи: 1989
Аудиокодек: FLAC
Тип рипа: tracks
Битрейт аудио: lossless
Продолжительность: 67:38
Источник: релизер (c благодарностью KathiSH)
Треклист:
GIUSEPPE VERDI
Rigoletto:
1. Prelude [02:24];
2. La donna e mobile [02:09];
3. Questa o quella [01:52];
Aida:
4. Prelude [04:30];
5. Se quel guerrier io fossi.... Celeste Aida [04:49];
GEORGES BIZET
Carmen:
6. Intermezzo [02:49];
7. La fleur que tu m'avais jetee [04:02];
CHARLES GOUNOD
Faust:
8. Salut! demeure chaste et pure [05:40];
JULES MASSENET
Werther:
9. Pourquoi me reveiller [02:50];
GIACOMO PUCCINI
Le Villi:
10. Prelude [02:34];
Tosca:
11. E lucevan le stelle [03:20];
12. Recondita armonia [02:44];
Turandot:
13. Nessun dorma [03:05];
Manon Lescaut:
14. Intermezzo [05:16];
15. Donna non vidi mai [02:25];
Madame Butterfly:
16. Addio, fiorito asil [02:05];
17. Agustin Lara - Granada [03:54];
18. Ernesto De Curtis - Torna a Surriento [04:08];
19. Eduardo Di Capua - O sole mio [03:04].
Исполнители:
Peter Dvorský, tenor,
Slovak Bratislava Radio Symphony Orchestra,
Ondrej Lenard, Conductor.
Record of Concert performance in Bratislava, 1989.

Лог создания рипа

Exact Audio Copy V1.0 beta 1 from 15. November 2010
EAC extraction logfile from 2. January 2011, 22:20
Peter Dvorsky / Italian and French Opera Arias
Used drive : TSSTcorpCDW/DVD TS-H492B Adapter: 1 ID: 0
Read mode : Secure
Utilize accurate stream : Yes
Defeat audio cache : Yes
Make use of C2 pointers : No
Read offset correction : 6
Overread into Lead-In and Lead-Out : No
Fill up missing offset samples with silence : Yes
Delete leading and trailing silent blocks : No
Null samples used in CRC calculations : Yes
Used interface : Native Win32 interface for Win NT & 2000
Gap handling : Appended to previous track
Used output format : User Defined Encoder
Selected bitrate : 128 kBit/s
Quality : High
Add ID3 tag : No
Command line compressor : C:\Program Files\FLAC\flac.exe
Additional command line options : -V -8 -T "artist=%a" -T "title=%t" -T "album=%g" -T "date=%y" -T "tracknumber=%n" -T "genre=%m" %s
TOC of the extracted CD
Track | Start | Length | Start sector | End sector
---------------------------------------------------------
1 | 0:00.00 | 2:24.00 | 0 | 10799
2 | 2:24.00 | 2:09.00 | 10800 | 20474
3 | 4:33.00 | 1:52.00 | 20475 | 28874
4 | 6:25.00 | 4:30.00 | 28875 | 49124
5 | 10:55.00 | 4:49.00 | 49125 | 70799
6 | 15:44.00 | 2:49.00 | 70800 | 83474
7 | 18:33.00 | 4:02.00 | 83475 | 101624
8 | 22:35.00 | 5:40.00 | 101625 | 127124
9 | 28:15.00 | 2:50.00 | 127125 | 139874
10 | 31:05.00 | 2:34.00 | 139875 | 151424
11 | 33:39.00 | 3:20.00 | 151425 | 166424
12 | 36:59.00 | 2:44.00 | 166425 | 178724
13 | 39:43.00 | 3:05.00 | 178725 | 192599
14 | 42:48.00 | 5:16.00 | 192600 | 216299
15 | 48:04.00 | 2:25.00 | 216300 | 227174
16 | 50:29.00 | 2:05.00 | 227175 | 236549
17 | 52:34.00 | 3:54.00 | 236550 | 254099
18 | 56:28.00 | 4:08.00 | 254100 | 272699
19 | 60:36.00 | 3:04.00 | 272700 | 286499
Track 1
Filename C:\Documents and Settings\Administrator.MYMAIN\My Documents\My Music\Italian and French Opera Arias, Dvorsky\01 - Prelude (Verdi- Rigoletto).wav
Pre-gap length 0:00:02.00
Peak level 74.3 %
Extraction speed 1.8 X
Track quality 100.0 %
Test CRC 11277D6C
Copy CRC 11277D6C
Track not present in AccurateRip database
Copy OK
Track 2
Filename C:\Documents and Settings\Administrator.MYMAIN\My Documents\My Music\Italian and French Opera Arias, Dvorsky\02 - La donna e mobile (Verdi- Rigoletto).wav
Peak level 81.2 %
Extraction speed 4.5 X
Track quality 100.0 %
Test CRC CF4BC606
Copy CRC CF4BC606
Track not present in AccurateRip database
Copy OK
Track 3
Filename C:\Documents and Settings\Administrator.MYMAIN\My Documents\My Music\Italian and French Opera Arias, Dvorsky\03 - Questa o quella (Verdi- Rigoletto).wav
Peak level 86.5 %
Extraction speed 4.3 X
Track quality 100.0 %
Test CRC 324D66F0
Copy CRC 324D66F0
Track not present in AccurateRip database
Copy OK
Track 4
Filename C:\Documents and Settings\Administrator.MYMAIN\My Documents\My Music\Italian and French Opera Arias, Dvorsky\04 - Prelude (Verdi- Aida).wav
Peak level 83.6 %
Extraction speed 5.1 X
Track quality 100.0 %
Test CRC E4D7A569
Copy CRC E4D7A569
Track not present in AccurateRip database
Copy OK
Track 5
Filename C:\Documents and Settings\Administrator.MYMAIN\My Documents\My Music\Italian and French Opera Arias, Dvorsky\05 - Se quel guerrier io fossi....Celeste Aida (Verdi- Aida).wav
Peak level 84.5 %
Extraction speed 4.9 X
Track quality 100.0 %
Test CRC 90C5B649
Copy CRC 90C5B649
Track not present in AccurateRip database
Copy OK
Track 6
Filename C:\Documents and Settings\Administrator.MYMAIN\My Documents\My Music\Italian and French Opera Arias, Dvorsky\06 - Intermezzo (Bizet- Carmen).wav
Peak level 18.9 %
Extraction speed 0.9 X
Track quality 99.9 %
Test CRC 93877E7E
Copy CRC 93877E7E
Track not present in AccurateRip database
Copy OK
Track 7
Filename C:\Documents and Settings\Administrator.MYMAIN\My Documents\My Music\Italian and French Opera Arias, Dvorsky\07 - La fleur que tu m´avais jetee (Bizet- Carmen).wav
Peak level 79.1 %
Extraction speed 1.1 X
Track quality 99.9 %
Test CRC 24252694
Copy CRC 24252694
Track not present in AccurateRip database
Copy OK
Track 8
Filename C:\Documents and Settings\Administrator.MYMAIN\My Documents\My Music\Italian and French Opera Arias, Dvorsky\08 - Salut! demeure chaste et pure (Gounod- Faust).wav
Peak level 78.5 %
Extraction speed 3.1 X
Track quality 100.0 %
Test CRC 067239D8
Copy CRC 067239D8
Track not present in AccurateRip database
Copy OK
Track 9
Filename C:\Documents and Settings\Administrator.MYMAIN\My Documents\My Music\Italian and French Opera Arias, Dvorsky\09 - Pourquoi me reveiller (Massenet- Werther).wav
Peak level 75.4 %
Extraction speed 1.1 X
Track quality 99.9 %
Test CRC CFBAA4DE
Copy CRC CFBAA4DE
Track not present in AccurateRip database
Copy OK
Track 10
Filename C:\Documents and Settings\Administrator.MYMAIN\My Documents\My Music\Italian and French Opera Arias, Dvorsky\10 - Prelude (Puccini- Le Villi).wav
Peak level 40.1 %
Extraction speed 3.0 X
Track quality 100.0 %
Test CRC EA426D71
Copy CRC EA426D71
Track not present in AccurateRip database
Copy OK
Track 11
Filename C:\Documents and Settings\Administrator.MYMAIN\My Documents\My Music\Italian and French Opera Arias, Dvorsky\11 - E lucevan le stelle (Puccini- Tosca).wav
Peak level 78.3 %
Extraction speed 3.2 X
Track quality 100.0 %
Test CRC 155F4644
Copy CRC 155F4644
Track not present in AccurateRip database
Copy OK
Track 12
Filename C:\Documents and Settings\Administrator.MYMAIN\My Documents\My Music\Italian and French Opera Arias, Dvorsky\12 - Ricondita armonia (Puccini- Tosca).wav
Peak level 85.8 %
Extraction speed 3.2 X
Track quality 100.0 %
Test CRC A41157C5
Copy CRC A41157C5
Track not present in AccurateRip database
Copy OK
Track 13
Filename C:\Documents and Settings\Administrator.MYMAIN\My Documents\My Music\Italian and French Opera Arias, Dvorsky\13 - Nessun dorma (Puccini- Turandot).wav
Peak level 84.2 %
Extraction speed 3.3 X
Track quality 100.0 %
Test CRC AF78AD2A
Copy CRC AF78AD2A
Track not present in AccurateRip database
Copy OK
Track 14
Filename C:\Documents and Settings\Administrator.MYMAIN\My Documents\My Music\Italian and French Opera Arias, Dvorsky\14 - Intermezzo (Puzzini- Manon Lescaut).wav
Peak level 95.5 %
Extraction speed 3.7 X
Track quality 100.0 %
Test CRC 6A0FDFB5
Copy CRC 6A0FDFB5
Track not present in AccurateRip database
Copy OK
Track 15
Filename C:\Documents and Settings\Administrator.MYMAIN\My Documents\My Music\Italian and French Opera Arias, Dvorsky\15 - Donna non vidi mai (Puzzini- Manon Lescaut).wav
Peak level 75.7 %
Extraction speed 3.5 X
Track quality 100.0 %
Test CRC 74872160
Copy CRC 74872160
Track not present in AccurateRip database
Copy OK
Track 16
Filename C:\Documents and Settings\Administrator.MYMAIN\My Documents\My Music\Italian and French Opera Arias, Dvorsky\16 - Addio, fiorito asil (Puzzini Madame Butterfly).wav
Peak level 74.8 %
Extraction speed 3.3 X
Track quality 100.0 %
Test CRC D545A19D
Copy CRC D545A19D
Track not present in AccurateRip database
Copy OK
Track 17
Filename C:\Documents and Settings\Administrator.MYMAIN\My Documents\My Music\Italian and French Opera Arias, Dvorsky\17 - Lara- Granada.wav
Peak level 84.3 %
Extraction speed 3.9 X
Track quality 100.0 %
Test CRC 297F5BFA
Copy CRC 297F5BFA
Track not present in AccurateRip database
Copy OK
Track 18
Filename C:\Documents and Settings\Administrator.MYMAIN\My Documents\My Music\Italian and French Opera Arias, Dvorsky\18 - De Curtis- Torna a Surriento.wav
Peak level 72.7 %
Extraction speed 4.0 X
Track quality 100.0 %
Test CRC 6E6CDEB3
Copy CRC 6E6CDEB3
Track not present in AccurateRip database
Copy OK
Track 19
Filename C:\Documents and Settings\Administrator.MYMAIN\My Documents\My Music\Italian and French Opera Arias, Dvorsky\19 - Di Capua- O sole mio.wav
Peak level 75.5 %
Extraction speed 3.8 X
Track quality 100.0 %
Test CRC 211F160E
Copy CRC 211F160E
Track not present in AccurateRip database
Copy OK
None of the tracks are present in the AccurateRip database
No errors occurred
End of status report
==== Log checksum 5C12BAABFDA1F4D2D6BDC343E259C391AB97BBA30F1734C53946976A95088134 ====



Показать сообщения:    

Текущее время: 09-Дек 14:42

Часовой пояс: UTC + 3


Вы не можете начинать темы
Вы не можете отвечать на сообщения
Вы не можете редактировать свои сообщения
Вы не можете удалять свои сообщения
Вы не можете голосовать в опросах
Вы не можете прикреплять файлы к сообщениям
Вы не можете скачивать файлы