Несвятые святые (Оксана Шелест, Ольга Тутушкина) [2015 г., Концертно-театральная постановка, SATRip] Крокус Сити Холл


 

[Цитировать]

Несвятые святые Название театра: Крокус Сити Холл.
Год выпуска: 2015.
Жанр: Концертно-театральная постановка.
Продолжительность: 01:29:38.
Режиссеры: Оксана Шелест, Ольга Тутушкина.
Избранные фрагменты книги читают: Дмитрий Певцов, Дмитрий Дюжев, Борис Плотников.
Описание:
Концертно-театральная постановка по одноимённой книге архимандрита Тихона (Шевкунова).
Телеверсия спектакля-концерта по книге "Несвятые святые" и другие рассказы" архимандрита Тихона (Шевкунова), опубликованной в 2011 году. Книга представляет собой сборник рассказов из реальной жизни священнослужителей, событий, происходивших в советский период, и затрагивает широкий круг событий и тем - о патриотических деяниях служителей церкви, о трагических событиях истории, а также о забавных эпизодах из жизни; о месте человека в мире, его отношениях с себе подобными и Богом.

Дополнительная информация:
Страна: Россия .
Выпущено: © ГТРК "Культура".
Идея и сценарий: архимандрит Тихон (Шевкунов).
Режиссёр-постановщик: Оксана Шелест.
Художник: Дмитрий Смирнов.
Песни исполняют: Олег Погудин, Евгения Смольянинова, Алексей Татаринцев, Дмитрий Певцов, Михаил Миллер.
Дирижёр: Дмитрий Дмитриенко.
Принимают участие коллективы: Хор Московского Сретенского монастыря, художественный руковолитель и дирижёр - Никон Жила; Государственный академический русский народный ансамбль "Россия" имени Л. Г. Зыкиной; Камерная капелла "Русская консерватория", художественный руководитель и дирижёр - Николай Хондзинский; Андрей Вертузаев и группа "КарТуш"; Детско-юношеский хор "Камерата"; Гитарный квартет им. А. Фраучи; Московский молодежный камерный оркестр; ансамбль "Колокола России".
Авторы произведений: Василий Агапкин, Владимир Лазарев, иеромонах Роман (Матюшин), Иван Козлов, Александра Пахмутова, Николай Добронравов, Степан Дегтярёв, Людвиг Ван Бетховен, Иоганнес Брамс, Вольфганг Амадей Моцарт, Франц Вильгельм Абт, Сергей Прокофьев, Валерий Гаврилин, Ссергей Рахманинов, Георгий Свиридов, Нино Рота, Петр Чайковский, Антонин Дворжак, Юрий Абдоков.
Режиссёр телеверсии: Ольга Тутушкина.
Оператор-постановщик: Владимир Иванов.
Концерт состоялся в Крокус Сити Холл, 11 и 12 января 2015 года.
Релиз
Рип lesik689 .
Качество видео:...SATRip
Формат:.................AVI
Видео:..704x400 (1.76:1), 25 fps, XviD MPEG-4 ~1901 kbps avg, 0.27 bit/pixel
Аудио:..48 kHz, AC3 Dolby Digital, 2/0 (L,R) ch, ~256 kbps

Отчет Media Info

General
Complete name : Nesvjatyje.svjatyje_Krokus.siti.holl.2015.XviD.SATRip.fenixclub.avi
Format : AVI
Format/Info : Audio Video Interleave
File size : 1.36 GiB
Duration : 1h 29mn
Overall bit rate : 2 167 Kbps
Writing application : VirtualDubMod 1.5.10.2 (build 2542/release)
Writing library : VirtualDubMod build 2542/release
Video
ID : 0
Format : MPEG-4 Visual
Format profile : Advanced Simple@L5
Format settings, BVOP : 2
Format settings, QPel : No
Format settings, GMC : No warppoints
Format settings, Matrix : Default (MPEG)
Muxing mode : Packed bitstream
Codec ID : XVID
Codec ID/Hint : XviD
Duration : 1h 29mn
Bit rate : 1 901 Kbps
Width : 704 pixels
Height : 400 pixels
Display aspect ratio : 5:4
Original display aspect rat : 4:3
Frame rate : 25.000 fps
Color space : YUV
Chroma subsampling : 4:2:0
Bit depth : 8 bits
Scan type : Progressive
Compression mode : Lossy
Bits/(Pixel*Frame) : 0.270
Stream size : 1.19 GiB (88%)
Writing library : XviD 64
Audio
ID : 1
Format : AC-3
Format/Info : Audio Coding 3
Mode extension : CM (complete main)
Format settings, Endianness : Big
Codec ID : 2000
Duration : 1h 29mn
Bit rate mode : Constant
Bit rate : 256 Kbps
Channel(s) : 2 channels
Channel positions : Front: L R
Sampling rate : 48.0 KHz
Bit depth : 16 bits
Compression mode : Lossy
Stream size : 164 MiB (12%)
Alignment : Aligned on interleaves
Interleave, duration : 40 ms (1.00 video frame)
Interleave, preload duratio : 512 ms.

Скриншот с названием постановки

Скриншоты


Альтернативный хост





Показать сообщения:    

Текущее время: 05-Дек 11:30

Часовой пояс: UTC + 3


Вы не можете начинать темы
Вы не можете отвечать на сообщения
Вы не можете редактировать свои сообщения
Вы не можете удалять свои сообщения
Вы не можете голосовать в опросах
Вы не можете прикреплять файлы к сообщениям
Вы не можете скачивать файлы