(Classical) о. Доностия – Полное собрание сочинений для фортепиано в две руки / Aita (Padre) Donostia – Piano music: Basque preludes; Mosaicos (Jordi Maso) - 2004, FLAC (image+.cue) lossless


 

[Цитировать]

о. Доностия – Полное собрание сочинений для фортепиано в две руки / Aita (Padre) Donostia – Piano music: Basque preludes; Mosaicos (Jordi Masó)
Жанр: Classical
Страна-производитель диска: ЕС
Год издания диска: 2004
Издатель (лейбл): Naxos
Номер по каталогу: 8.557228
Дата записи: 27 — 29 июля 2000 г., Барселона.
Аудиокодек: FLAC
Тип рипа: image+.cue
Битрейт аудио: lossless
Продолжительность: 01:18:35
Источник: Погружение (konst)
Наличие сканов в содержимом раздачи: да
Треклист:-Отец Хосе Антонио де Доностия (Хосе Гонсало Сулайка-и-Арреги; 1886 — 1956).
Полное собрание сочинений для фортепиано в две руки.-«Баскские прелюдии» для фортепиано: Тетрадь I (1912).
01. № 1 F-dur. Импровизация (Bat-batian — Improvisación). Andantino quasi allegretto [01:47].
02. № 2 Ges-dur. Беседа (Izketan — Diálogo). Ad libitum. — Andante. — Como antes. — A tempo. — Tempo I [03:42].
03. № 3 H-dur. В лесу (Oyanian — En el bosque). Tranquilo. — Poco más movido. — Tempo I. — Poco más movido. — Tempo I. — Poco más movido. — Tempo I [02:45].
04. № 4 d-moll. Грустная песня (Eresia — Canción triste). Andante. — Poco più mosso. — A tempo. — Tranquilo. — Poco più mosso [03:04].
05. № 5 G-dur. Детский танец (Aur-dantza — Danza infantil). Movido. — Allegretto [03:15].
Баскские прелюдии для фортепиано: Тетрадь II (1913).
06. № 6 b-moll. Печаль (Oñazez! — Dolor). Andante [01:37].
07. № 7 F-dur. Дедушкина сказка (Aitonaren ele-zaarrak — Cuento del abuelo). Andantino. — Allegretto [01:59].
08. № 8 g-moll. Песня пастушка (Artzai gaztearen oiuak — Canción del pastor jóven). Allegretto [01:35].
09. № 9 Fis-dur. Колыбельная (Seask' aldean eresiz — Canción de cuna). Andante [02:12].
10. № 10 G-dur. У сельской двери (Bordako atalarrian — A la puerta del caserío). Movido [01:04].
11. № 11 g-moll. Песня парней (Mutillen karrika-eresiak — Ronda de mozos). Allegretto movido no mucho [01:38].
Баскские прелюдии для фортепиано: Тетрадь III (1914).
12. № 12 Des-dur. Песня в лунном свете (Illargitan, emazte-gayanerontz — Cantando a la luz de la luna). Andante [04:16].
13. № 13 D-dur. Дальняя ромерия [религиозное гуляние] (Urruti-jaya — Romería lejana). Allegretto [04:43].
14. № 14 F-dur. Прядильщица (Irulea — La hilandera). Tranquilo [00:56].
15. № 15 e-moll. Слезы (Malkoa — Lágrimas). Andante quasi lento [02:55].
16. № 16 E-dur. Свадебная процессия (Eztei-taldea — Cortejo de boda), на бастанскую тему. Ad libitum. — Quasi allegretto. — Grave. — Tempo I [04:02].
Баскские прелюдии для фортепиано: Тетрадь IV (1915 — 1923).
17. № 17 fis-moll. Соловей из Эррота-сури [sic!] (Errotazuriko urretxindorra — El ruiseñor de Errotazuri). Libremente. — Tranquilo. — Più mosso. — Tempo I. — Più mosso. — Tempo I. — Lento [03:54].
18. № 18 cis-moll. Сулетинский [sic!] пейзаж (Zubero-errialde — Paisaje Suletino). Allegretto [03:47].
Три танца.
19. № 19 C-dur. Танец яблок (Sagar-dantza — Baile de las manzanas). Noblemente. — Poco più mosso. — Allegretto [02:02].
20. № 20 D-dur. Танец рук (Esku-dantza — Danza de manos). Allegretto quasi allegro [00:29].
21. № 21 F-dur. Танец черного дрозда (Zozo-dantza — Danza del mirlo). Allegretto. — Allegro [00:46].
«Мозаики» (Mosaicos) [?].
22. № 1. Анданте для баскской сонаты (alla classica) Es-dur для фортепиано (1913) [04:57].
23. № 2. «Ностальгия» ([H]errimina) d-moll для гитары, оригинальное переложение для фортепиано (1925) [04:40].
24. № 3. Сердечная молитва (Prière plaintive) Богородице часовни Сокорри (de Sokorri) [в Уррюни] a-moll для фортепиано (1928) [03:02].
25. № 4. Баскский менуэт (Menuet basque) A-dur для фортепиано (1928) [01:57].
26. № 5. «На берегах Тера» (Vora 'l Ter), детская ностальгическая серенада A-dur для гитары, оригинальное переложение для фортепиано (1934) [02:18].
27. № 6. Тьенто и песня (Tiento y canción) d-moll для гитары, оригинальное переложение для фортепиано (1946) [04:18].
28. № 7. «Приношение Хуану Крисостомо Арриаге» (Homenaje a J.C. de Arriaga) A-dur для фортепиано (1954) [02:19].-Исполнитель:
Jordi Masó (фортепиано).

Лог создания рипа

Exact Audio Copy V0.99 prebeta 5 from 4. May 2009
Отчёт EAC об извлечении, выполненном 27. января 2013, 23:36
Jordi Maso / Donostia - Piano Music
Дисковод: HL-DT-STDVDRAM GT51N Adapter: 0 ID: 0
Режим чтения : Достоверность
Использование точного потока : Да
Отключение кэша аудио : Да
Использование указателей C2 : Нет
Коррекция смещения при чтении : 103
Способность читать области Lead-in и Lead-out : Нет
Заполнение пропущенных сэмплов тишиной : Да
Удаление блоков с тишиной в начале и конце : Нет
При вычислениях CRC использовались нулевые сэмплы : Да
Интерфейс : Установленный внешний ASPI-интерфейс
Выходной формат : Пользовательский кодировщик
Выбранный битрейт : 768 kBit/s
Качество : Высокий
Добавление ID3-тэга : Нет
Утилита сжатия : C:\Program Files (x86)\Exact Audio Copy\Flac\flac.exe
Дополнительные параметры : -6 -V -T "ARTIST=%a" -T "TITLE=%t" -T "ALBUM=%g" -T "DATE=%y" -T "TRACKNUMBER=%n" -T "GENRE=%m" -T "COMMENT=%e" %s -o %d
TOC извлечённого CD
Трек | Старт | Длительность | Начальный сектор | Конечный сектор
---------------------------------------------------------------------
1 | 0:00.00 | 1:54.02 | 0 | 8551
2 | 1:54.02 | 3:47.28 | 8552 | 25604
3 | 5:41.30 | 2:51.15 | 25605 | 38444
4 | 8:32.45 | 3:09.62 | 38445 | 52681
5 | 11:42.32 | 3:20.05 | 52682 | 67686
6 | 15:02.37 | 1:43.13 | 67687 | 75424
7 | 16:45.50 | 2:05.02 | 75425 | 84801
8 | 18:50.52 | 1:41.68 | 84802 | 92444
9 | 20:32.45 | 2:18.02 | 92445 | 102796
10 | 22:50.47 | 1:09.20 | 102797 | 107991
11 | 23:59.67 | 1:42.48 | 107992 | 115689
12 | 25:42.40 | 4:21.05 | 115690 | 135269
13 | 30:03.45 | 4:48.12 | 135270 | 156881
14 | 34:51.57 | 1:01.68 | 156882 | 161524
15 | 35:53.50 | 3:01.12 | 161525 | 175111
16 | 38:54.62 | 4:08.13 | 175112 | 193724
17 | 43:03.00 | 3:59.72 | 193725 | 211721
18 | 47:02.72 | 3:52.63 | 211722 | 229184
19 | 50:55.60 | 2:08.17 | 229185 | 238801
20 | 53:04.02 | 0:34.68 | 238802 | 241419
21 | 53:38.70 | 0:49.22 | 241420 | 245116
22 | 54:28.17 | 5:02.50 | 245117 | 267816
23 | 59:30.67 | 4:45.48 | 267817 | 289239
24 | 64:16.40 | 3:08.00 | 289240 | 303339
25 | 67:24.40 | 2:02.35 | 303340 | 312524
26 | 69:27.00 | 2:23.10 | 312525 | 323259
27 | 71:50.10 | 4:23.70 | 323260 | 343054
28 | 76:14.05 | 2:18.70 | 343055 | 353474
Характеристики диапазона извлечения и сообщения об ошибках
Выбранный диапазон
Имя файла D:\Music\Jordi Maso - Donostia - Piano Music.wav
Пиковый уровень 82.0 %
Качество диапазона 99.9 %
CRC копии 914FFFC0
Копирование... OK
Ошибок не произошло
Конец отчёта

Содержание индексной карты (.CUE)

REM GENRE Classical
REM DATE 2004
REM DISCID 6F12691C
REM COMMENT "ExactAudioCopy v0.99pb5"
PERFORMER "Jordi Maso"
TITLE "Aita Donostia – Piano music – Jordi Maso"
FILE "Aita Donostia – Piano music – Jordi Maso.flac" WAVE
TRACK 01 AUDIO
TITLE "Basque Preludes - I. Improvisation"
PERFORMER "Jordi Maso"
INDEX 01 00:00:00
TRACK 02 AUDIO
TITLE "Basque Preludes - II. Dialogue"
PERFORMER "Jordi Maso"
INDEX 00 01:47:37
INDEX 01 01:54:02
TRACK 03 AUDIO
TITLE "Basque Preludes - III. In the Wood"
PERFORMER "Jordi Maso"
INDEX 00 05:35:45
INDEX 01 05:41:30
TRACK 04 AUDIO
TITLE "Basque Preludes - IV. Sad Song"
PERFORMER "Jordi Maso"
INDEX 00 08:25:70
INDEX 01 08:32:45
TRACK 05 AUDIO
TITLE "Basque Preludes - V. Children's Dance"
PERFORMER "Jordi Maso"
INDEX 00 11:36:47
INDEX 01 11:42:32
TRACK 06 AUDIO
TITLE "Basque Preludes - VI. Grief"
PERFORMER "Jordi Maso"
INDEX 00 14:57:05
INDEX 01 15:02:37
TRACK 07 AUDIO
TITLE "Basque Preludes - VII. Grandfather's Tale"
PERFORMER "Jordi Maso"
INDEX 00 16:39:40
INDEX 01 16:45:50
TRACK 08 AUDIO
TITLE "Basque Preludes - VIII. Shepherd-boy's Song"
PERFORMER "Jordi Maso"
INDEX 00 18:44:70
INDEX 01 18:50:52
TRACK 09 AUDIO
TITLE "Basque Preludes - IX. Lullaby"
PERFORMER "Jordi Maso"
INDEX 00 20:26:05
INDEX 01 20:32:45
TRACK 10 AUDIO
TITLE "Basque Preludes - X. At the Farmhouse Door"
PERFORMER "Jordi Maso"
INDEX 00 22:44:30
INDEX 01 22:50:47
TRACK 11 AUDIO
TITLE "Basque Preludes - XI. Young Men's Serenade"
PERFORMER "Jordi Maso"
INDEX 00 23:54:17
INDEX 01 23:59:67
TRACK 12 AUDIO
TITLE "Basque Preludes - XII. Singing in the Moonlight"
PERFORMER "Jordi Maso"
INDEX 00 25:38:00
INDEX 01 25:42:40
TRACK 13 AUDIO
TITLE "Basque Preludes - XIII. Distant Procession"
PERFORMER "Jordi Maso"
INDEX 00 29:57:62
INDEX 01 30:03:45
TRACK 14 AUDIO
TITLE "Basque Preludes - XIV. The Spinner Woman"
PERFORMER "Jordi Maso"
INDEX 00 34:46:25
INDEX 01 34:51:57
TRACK 15 AUDIO
TITLE "Basque Preludes - XV. Tears"
PERFORMER "Jordi Maso"
INDEX 00 35:48:07
INDEX 01 35:53:50
TRACK 16 AUDIO
TITLE "Basque Preludes - XVI. Wedding Procession"
PERFORMER "Jordi Maso"
INDEX 00 38:48:70
INDEX 01 38:54:62
TRACK 17 AUDIO
TITLE "Basque Preludes - XVII. The Nightingale of Errotazuri"
PERFORMER "Jordi Maso"
INDEX 00 42:57:22
INDEX 01 43:03:00
TRACK 18 AUDIO
TITLE "Basque Preludes - XVIII. Landscape of La Soule"
PERFORMER "Jordi Maso"
INDEX 00 46:56:67
INDEX 01 47:02:72
TRACK 19 AUDIO
TITLE "Basque Preludes - XIX. Dance of the Apples"
PERFORMER "Jordi Maso"
INDEX 00 50:49:70
INDEX 01 50:55:60
TRACK 20 AUDIO
TITLE "Basque Preludes - XX. Dance of the Hands"
PERFORMER "Jordi Maso"
INDEX 00 52:58:12
INDEX 01 53:04:02
TRACK 21 AUDIO
TITLE "Basque Preludes - XXI. Dance of the Blackbird"
PERFORMER "Jordi Maso"
INDEX 00 53:33:15
INDEX 01 53:38:70
TRACK 22 AUDIO
TITLE "Andante for a Basque Sonata: alla classica"
PERFORMER "Jordi Maso"
INDEX 00 54:24:57
INDEX 01 54:28:17
TRACK 23 AUDIO
TITLE "Errimina - Nostalgia"
PERFORMER "Jordi Maso"
INDEX 00 59:25:17
INDEX 01 59:30:67
TRACK 24 AUDIO
TITLE "Heartfelt Prayer to Our Lady of Socorri"
PERFORMER "Jordi Maso"
INDEX 00 64:10:57
INDEX 01 64:16:40
TRACK 25 AUDIO
TITLE "Basque Minuet"
PERFORMER "Jordi Maso"
INDEX 00 67:18:47
INDEX 01 67:24:40
TRACK 26 AUDIO
TITLE "On the Banks of the Ter, children's nostalgic serenade (for guitar)"
PERFORMER "Jordi Maso"
INDEX 00 69:21:32
INDEX 01 69:27:00
TRACK 27 AUDIO
TITLE "Tiento and Song (for guitar)"
PERFORMER "Jordi Maso"
INDEX 00 71:44:42
INDEX 01 71:50:10
TRACK 28 AUDIO
TITLE "Homage to Juan Crisostomo Arriaga"
PERFORMER "Jordi Maso"
INDEX 00 76:08:07
INDEX 01 76:14:05

Лог проверки качества

AUDIOCHECKER v2.0 beta (build 457) - by Dester - opdester@freemail.hu
~~~~~~~~~~~~~~~~~~~~~~~~~~~~~~~~~~
-=== DO NOT EDIT THIS FILE! ===-
Path: ...\Aita Donostia – Piano music (Jordi Maso)
1 -=- Aita Donostia – Piano music – Jordi Maso.flac -=- CDDA (100%)
112584004



Показать сообщения:    

Текущее время: 08-Дек 14:55

Часовой пояс: UTC + 3


Вы не можете начинать темы
Вы не можете отвечать на сообщения
Вы не можете редактировать свои сообщения
Вы не можете удалять свои сообщения
Вы не можете голосовать в опросах
Вы не можете прикреплять файлы к сообщениям
Вы не можете скачивать файлы