(Opera) Wagner - Die Meistersinger von Nurnberg (Dohmen, Henschel, Haller, Smith, Breedt, Zeppenfeld, Sonn, Rundfunkchor Berlin, Eberhardt Friedrich, Rundfunk-Sinfonieorchester Berlin, Marek Janowski) - 2011, FLAC (image+.cue), lossless


 

[Цитировать]

Wagner - Die Meistersinger von Nürnberg - Janowski
Жанр: Opera
Страна-производитель диска: Germany
Год издания диска: 2011
Издатель (лейбл): PentaTone Classics
Номер по каталогу: PTC 5186 402
Дата записи: 03.06.2011
Аудиокодек: FLAC
Тип рипа: image+.cue
Битрейт аудио: lossless
Продолжительность: 79.52 + 58.32 + 67.23 + 47.20
Источник: собственный рип
Наличие сканов в содержимом раздачи: да

CD1:Треклист:

Act I
01. Vorspiel
02. Da zu dir der Heiland kam
03. Verweilt! Ein Wort
04. David! Was stehst?
05. Mein Herr! Der Singer Meisterschlag
06. Der Meister Tun' und Weisen
07. Seid meiner Treue wohl versehen
08. Zu einer Freiung
09. Nicht doch, ihr Meister
10. Verzeiht, vielleicht schon ginget ihr zu weit
11. Dacht ich mir's doch!
12. Am stillen Herd
13. Nun, Meister! Wenn's gefallt
14. Was euch zum Liede Richt und Schnur
15. Fur dich, Geliebte, sei's getan - Fanget an!
16. Halt, Meister! Nicht so geeilt!
Total 79.52

Лог создания рипа:

Exact Audio Copy V1.0 beta 3 from 29. August 2011
Отчёт EAC об извлечении, выполненном 22. февраля 2015, 21:29
Richard Wagner / Die Meistersinger von Nurnberg - CD1
Дисковод: Optiarc DVD RW AD-7260S Adapter: 0 ID: 1
Режим чтения : Достоверность
Использование точного потока : Да
Отключение кэша аудио : Да
Использование указателей C2 : Нет
Коррекция смещения при чтении : 48
Способность читать области Lead-in и Lead-out : Нет
Заполнение пропущенных сэмплов тишиной : Да
Удаление блоков с тишиной в начале и конце : Нет
При вычислениях CRC использовались нулевые сэмплы : Да
Интерфейс : Встроенный Win32-интерфейс для Win NT/2000
Выходной формат : Пользовательский кодировщик
Выбранный битрейт : 896 kBit/s
Качество : Высокий
Добавление ID3-тега : Нет
Утилита сжатия : C:\Program Files\FLAC Frontend\tools\flac.exe
Дополнительные параметры : -V -8 -T "Date=%year%" -T "Genre=%genre%" %source%
TOC извлечённого CD
Трек | Старт | Длительность | Начальный сектор | Конечный сектор
---------------------------------------------------------------------
1 | 0:00.00 | 8:31.58 | 0 | 38382
2 | 8:31.58 | 3:20.36 | 38383 | 53418
3 | 11:52.19 | 8:46.09 | 53419 | 92877
4 | 20:38.28 | 1:59.54 | 92878 | 101856
5 | 22:38.07 | 2:57.58 | 101857 | 115189
6 | 25:35.65 | 10:17.57 | 115190 | 161521
7 | 35:53.47 | 4:20.43 | 161522 | 181064
8 | 40:14.15 | 2:07.15 | 181065 | 190604
9 | 42:21.30 | 6:53.37 | 190605 | 221616
10 | 49:14.67 | 5:14.25 | 221617 | 245191
11 | 54:29.17 | 2:21.56 | 245192 | 255822
12 | 56:50.73 | 5:01.40 | 255823 | 278437
13 | 61:52.38 | 2:22.20 | 278438 | 289107
14 | 64:14.58 | 2:38.20 | 289108 | 300977
15 | 66:53.03 | 5:37.66 | 300978 | 326318
16 | 72:30.69 | 7:21.28 | 326319 | 359421
Характеристики диапазона извлечения и сообщения об ошибках
Выбранный диапазон
Имя файла N:\Wagner - Die Meistersinger von Nurnberg - Janowski\Richard Wagner - Die Meistersinger von Nurnberg - CD1.wav
Пиковый уровень 90.2 %
Скорость извлечения 4.6 X
Качество диапазона 100.0 %
CRC теста C6C1E8C8
CRC копии C6C1E8C8
Копирование... OK
Ошибок не произошло
AccurateRip: сводка
Трек 1 : извлечено точно (доверие 10) [C077E937] (AR v2)
Трек 2 : извлечено точно (доверие 10) [E0C57C1F] (AR v2)
Трек 3 : извлечено точно (доверие 10) [90AC9B95] (AR v2)
Трек 4 : извлечено точно (доверие 10) [27BBCB28] (AR v2)
Трек 5 : извлечено точно (доверие 10) [10308C83] (AR v2)
Трек 6 : извлечено точно (доверие 10) [67E6BBF8] (AR v2)
Трек 7 : извлечено точно (доверие 10) [038FBE4C] (AR v2)
Трек 8 : извлечено точно (доверие 10) [8AFCFA60] (AR v2)
Трек 9 : извлечено точно (доверие 10) [99B359DF] (AR v2)
Трек 10 : извлечено точно (доверие 10) [18C9F71E] (AR v2)
Трек 11 : извлечено точно (доверие 10) [6F1F5DF0] (AR v2)
Трек 12 : извлечено точно (доверие 10) [8A37B241] (AR v2)
Трек 13 : извлечено точно (доверие 10) [04EA4B89] (AR v2)
Трек 14 : извлечено точно (доверие 10) [5B69D0CA] (AR v2)
Трек 15 : извлечено точно (доверие 9) [7C8BAA4B] (AR v2)
Трек 16 : извлечено точно (доверие 9) [7F206B6E] (AR v2)
Все треки извлечены точно
Конец отчёта
==== Контрольная сумма отчёта A83549C57018300818E11350C38797EC79631FA6D8DE9DD9CAB867AA1E87DBAA ====

CD2:Треклист:

Act II
01. Johannistag! Johannistag!
02. Lass sehn, ob Meister Sachs zu Haus?
03. Was duftet doch der Flieder
04. Gut'n Abend, Meister!
05. Das dacht ich wohl
06. Da ist er!
07. Geliebter, spare den Zorn
08. Uble Dinge, die ich da merk
09. Jerum! Jerum!
10. Den Tag seh' ich erscheinen
11. Mit den Schuhen ward ich fertig schier
Total 58.32

Лог создания рипа:

Exact Audio Copy V1.0 beta 3 from 29. August 2011
Отчёт EAC об извлечении, выполненном 22. февраля 2015, 22:05
Richard Wagner / Die Meistersinger von Nurnberg - CD2
Дисковод: Optiarc DVD RW AD-7260S Adapter: 0 ID: 1
Режим чтения : Достоверность
Использование точного потока : Да
Отключение кэша аудио : Да
Использование указателей C2 : Нет
Коррекция смещения при чтении : 48
Способность читать области Lead-in и Lead-out : Нет
Заполнение пропущенных сэмплов тишиной : Да
Удаление блоков с тишиной в начале и конце : Нет
При вычислениях CRC использовались нулевые сэмплы : Да
Интерфейс : Встроенный Win32-интерфейс для Win NT/2000
Выходной формат : Пользовательский кодировщик
Выбранный битрейт : 896 kBit/s
Качество : Высокий
Добавление ID3-тега : Нет
Утилита сжатия : C:\Program Files\FLAC Frontend\tools\flac.exe
Дополнительные параметры : -V -8 -T "Date=%year%" -T "Genre=%genre%" %source%
TOC извлечённого CD
Трек | Старт | Длительность | Начальный сектор | Конечный сектор
---------------------------------------------------------------------
1 | 0:00.00 | 3:44.61 | 0 | 16860
2 | 3:44.61 | 6:23.33 | 16861 | 45618
3 | 10:08.19 | 6:06.08 | 45619 | 73076
4 | 16:14.27 | 8:09.61 | 73077 | 109812
5 | 24:24.13 | 2:03.51 | 109813 | 119088
6 | 26:27.64 | 3:48.66 | 119089 | 136254
7 | 30:16.55 | 1:57.57 | 136255 | 145086
8 | 32:14.37 | 2:36.72 | 145087 | 156858
9 | 34:51.34 | 12:30.05 | 156859 | 213113
10 | 47:21.39 | 5:30.71 | 213114 | 237934
11 | 52:52.35 | 5:39.45 | 237935 | 263404
Характеристики диапазона извлечения и сообщения об ошибках
Выбранный диапазон
Имя файла N:\Wagner - Die Meistersinger von Nurnberg - Janowski\CD2\Richard Wagner - Die Meistersinger von Nurnberg - CD2.wav
Пиковый уровень 96.0 %
Скорость извлечения 4.0 X
Качество диапазона 100.0 %
CRC теста 2B1EA095
CRC копии 2B1EA095
Копирование... OK
Ошибок не произошло
AccurateRip: сводка
Трек 1 : извлечено точно (доверие 10) [F8F632DA] (AR v2)
Трек 2 : извлечено точно (доверие 10) [604D220E] (AR v2)
Трек 3 : извлечено точно (доверие 10) [EFF61D5C] (AR v2)
Трек 4 : извлечено точно (доверие 10) [1527ADBF] (AR v2)
Трек 5 : извлечено точно (доверие 10) [F7C4104C] (AR v2)
Трек 6 : извлечено точно (доверие 10) [E45A2A8A] (AR v2)
Трек 7 : извлечено точно (доверие 10) [D9EB475D] (AR v2)
Трек 8 : извлечено точно (доверие 10) [ABAEF446] (AR v2)
Трек 9 : извлечено точно (доверие 10) [4C7AFF2C] (AR v2)
Трек 10 : извлечено точно (доверие 10) [C0B49138] (AR v2)
Трек 11 : извлечено точно (доверие 10) [BF12C02D] (AR v2)
Все треки извлечены точно
Конец отчёта
==== Контрольная сумма отчёта 895DFD4D11D5AF818D633479ACAC987C9C66736FEDEA20E13DBAF72D3FE3F27F ====

CD3:Треклист:

Act III
01. Vorspiel
02. Gleich, Meister! Hier!
03. Wahn! Wahn! Uberall Wahn!
04. Gruss Gott, mein Junker
05. Morgenlich leuchtend
06. Ein Werbelied! Von Sachs!
07. Das Gedicht? Hier liess ich's
08. Sieh, Evchen! Dacht ich's doch
09. Hat man mit dem Schuhwerk
10. Mein Kind, von Tristan und Isolde
Total 67.23

Лог создания рипа:

Exact Audio Copy V1.0 beta 3 from 29. August 2011
Отчёт EAC об извлечении, выполненном 23. февраля 2015, 11:34
Richard Wagner / Die Meistersinger von Nurnberg - CD3
Дисковод: Optiarc DVD RW AD-7260S Adapter: 0 ID: 1
Режим чтения : Достоверность
Использование точного потока : Да
Отключение кэша аудио : Да
Использование указателей C2 : Нет
Коррекция смещения при чтении : 48
Способность читать области Lead-in и Lead-out : Нет
Заполнение пропущенных сэмплов тишиной : Да
Удаление блоков с тишиной в начале и конце : Нет
При вычислениях CRC использовались нулевые сэмплы : Да
Интерфейс : Встроенный Win32-интерфейс для Win NT/2000
Выходной формат : Пользовательский кодировщик
Выбранный битрейт : 896 kBit/s
Качество : Высокий
Добавление ID3-тега : Нет
Утилита сжатия : C:\Program Files\FLAC Frontend\tools\flac.exe
Дополнительные параметры : -V -8 -T "Date=%year%" -T "Genre=%genre%" %source%
TOC извлечённого CD
Трек | Старт | Длительность | Начальный сектор | Конечный сектор
---------------------------------------------------------------------
1 | 0:00.00 | 6:00.18 | 0 | 27017
2 | 6:00.18 | 7:03.37 | 27018 | 58779
3 | 13:03.55 | 7:14.24 | 58780 | 91353
4 | 20:18.04 | 9:03.64 | 91354 | 132142
5 | 29:21.68 | 10:17.26 | 132143 | 178443
6 | 39:39.19 | 6:31.30 | 178444 | 207798
7 | 46:10.49 | 7:17.24 | 207799 | 240597
8 | 53:27.73 | 5:57.69 | 240598 | 267441
9 | 59:25.67 | 4:11.37 | 267442 | 286303
10 | 63:37.29 | 3:45.62 | 286304 | 303240
Характеристики диапазона извлечения и сообщения об ошибках
Выбранный диапазон
Имя файла N:\Wagner - Die Meistersinger von Nurnberg - Janowski\CD3\Richard Wagner - Die Meistersinger von Nurnberg - CD3.wav
Пиковый уровень 70.8 %
Скорость извлечения 4.4 X
Качество диапазона 100.0 %
CRC теста 7A070460
CRC копии 7A070460
Копирование... OK
Ошибок не произошло
AccurateRip: сводка
Трек 1 отсутствует в базе данных
Трек 2 отсутствует в базе данных
Трек 3 отсутствует в базе данных
Трек 4 отсутствует в базе данных
Трек 5 отсутствует в базе данных
Трек 6 отсутствует в базе данных
Трек 7 отсутствует в базе данных
Трек 8 отсутствует в базе данных
Трек 9 отсутствует в базе данных
Трек 10 отсутствует в базе данных
Ни одного трека нет в базе AccurateRip
Конец отчёта
==== Контрольная сумма отчёта 171203D7907E0F8884731EFF8B918189BB8F65F29F7933FB83443FE3A1941435 ====

CD4:Треклист:

Act III (cont.)
01. Die 'selige Morgentraum - Deutweise'
02. Selig, wie die Sonne
03. Sankt Krispin, lobet ihn!
04. Ihr tanzt
05. Wacht auf! Es nahet gen den Tag
06. Euch macht ihr's leicht
07. Morgen ich leuchte
08. Morgenlich leuchtend
09. Verachtet mir die Meister nicht
10. Ehrt eure deutschen Meister
Total 47.20

Лог создания рипа:

Exact Audio Copy V1.0 beta 3 from 29. August 2011
Отчёт EAC об извлечении, выполненном 23. февраля 2015, 20:46
Richard Wagner / Die Meistersinger von Nurnberg - CD4
Дисковод: Optiarc DVD RW AD-7260S Adapter: 0 ID: 1
Режим чтения : Достоверность
Использование точного потока : Да
Отключение кэша аудио : Да
Использование указателей C2 : Нет
Коррекция смещения при чтении : 48
Способность читать области Lead-in и Lead-out : Нет
Заполнение пропущенных сэмплов тишиной : Да
Удаление блоков с тишиной в начале и конце : Нет
При вычислениях CRC использовались нулевые сэмплы : Да
Интерфейс : Встроенный Win32-интерфейс для Win NT/2000
Выходной формат : Пользовательский кодировщик
Выбранный битрейт : 896 kBit/s
Качество : Высокий
Добавление ID3-тега : Нет
Утилита сжатия : C:\Program Files\FLAC Frontend\tools\flac.exe
Дополнительные параметры : -V -8 -T "Date=%year%" -T "Genre=%genre%" %source%
TOC извлечённого CD
Трек | Старт | Длительность | Начальный сектор | Конечный сектор
---------------------------------------------------------------------
1 | 0:00.00 | 1:07.60 | 0 | 5084
2 | 1:07.60 | 4:38.62 | 5085 | 25996
3 | 5:46.47 | 5:01.29 | 25997 | 48600
4 | 10:48.01 | 5:42.52 | 48601 | 74302
5 | 16:30.53 | 2:06.66 | 74303 | 83818
6 | 18:37.44 | 7:02.53 | 83819 | 115521
7 | 25:40.22 | 8:12.23 | 115522 | 152444
8 | 33:52.45 | 7:33.44 | 152445 | 186463
9 | 41:26.14 | 3:57.32 | 186464 | 204270
10 | 45:23.46 | 1:56.47 | 204271 | 213017
Характеристики диапазона извлечения и сообщения об ошибках
Выбранный диапазон
Имя файла N:\Wagner - Die Meistersinger von Nurnberg - Janowski\CD4\Richard Wagner - Die Meistersinger von Nurnberg - CD4.wav
Пиковый уровень 96.3 %
Скорость извлечения 3.8 X
Качество диапазона 99.9 %
CRC теста 11A351FD
CRC копии 11A351FD
Копирование... OK
Ошибок не произошло
AccurateRip: сводка
Трек 1 : извлечено точно (доверие 9) [72145DEB] (AR v2)
Трек 2 : извлечено точно (доверие 9) [7AAD0EAA] (AR v2)
Трек 3 : извлечено точно (доверие 9) [3F45B1F9] (AR v2)
Трек 4 : извлечено точно (доверие 9) [DCD8FF02] (AR v2)
Трек 5 : извлечено точно (доверие 9) [E08E864D] (AR v2)
Трек 6 : извлечено точно (доверие 9) [7D5D7594] (AR v2)
Трек 7 : извлечено точно (доверие 9) [9878E308] (AR v2)
Трек 8 : извлечено точно (доверие 9) [1DAE7AC2] (AR v2)
Трек 9 : извлечено точно (доверие 9) [E4364C43] (AR v2)
Трек 10 : извлечено точно (доверие 9) [A644BB2F] (AR v2)
Все треки извлечены точно
Конец отчёта
==== Контрольная сумма отчёта 6D0F9BB6424F5D9EF8E129D3083AE04764EBFBC8C63BD66918F8DAAD7238B917 ====

Исполнители:

Albert Dohmen
Georg Zeppenfeld
Michael Smallwood
Sebastian Noack
Robert Dean Smith
Dietrich Henschel
Tuomas Pursio
Jorg Schorner
Thomas Ebenstein
Thorsten Scharnke
Tobias Berndt
Hans-Peter Scheidegger
Hyung-Wook Lee
Peter Sonn
Edith Haller
Michele Breedt
Matti Salminen
Rundfunkchor Berlin, Eberhardt Friedrich
Rundfunk-Sinfonieorchester Berlin
Marek Janowski



Показать сообщения:    

Текущее время: 03-Дек 05:29

Часовой пояс: UTC + 3


Вы не можете начинать темы
Вы не можете отвечать на сообщения
Вы не можете редактировать свои сообщения
Вы не можете удалять свои сообщения
Вы не можете голосовать в опросах
Вы не можете прикреплять файлы к сообщениям
Вы не можете скачивать файлы