[TR24][OF] Maria Callas - Callas sings Mozart, Beethoven & Weber Arias [1963-64] (Paris Conservatoire Orchestra, Nicola Rescigno) - 2014 (Classical, Opera)

DL-List and Torrent activity [Update пиров]
Size:  915 MB   |    Registered:  7 months 3 days   |    Completed:  0 times

Seeder not seen: Never



Mozart, Beethoven & Weber Arias
Paris Conservatoire Orchestra · Nicola Rescigno
- Год издания: 2014
Жанр: Classical, Opera
Издатель (лейбл): Warner Classics
Продолжительность: 00:44:27
Наличие сканов: Covers, Digital Booklet
- -
Ludwig van Beethoven (1770-1827)
"Ah ! perfido", Op. 65
01. Scena & Aria (14:28)
Wolfgang Amadeus Mozart (1756-1791)
Don Giovanni, K. 527
02. Act 1: "Or sai chi l'onore" (Donna Anna) (3:12)
Le Nozze di Figaro, K. 492
03. Act 2: "Porgi, amor" (Countess) (4:12)
Carl Maria von Weber (1786-1826)
Oberon, J. 306
04. Act 2: "Ocean! thou mighty monster" (Reiza) (9:02)
Wolfgang Amadeus Mozart
Don Giovanni, K. 527
05. Act 2: "Non mir dir" (Donna Anna) (6:57)
06. Act 2: "In quali eccessi, O Numi!...Mi tradi quell'alma ingrata" (Donna Anna) (6:36)

Maria Callas - soprano
Paris Conservatoire Orchestra
Nicola Rescigno - conductor
Recorded: 6, 12, 13, 18, 23, 30.XII.1963 & 8.I.1964, Salle Wagram, Paris

Контейнер: FLAC (*.flac)
Тип рипа: tracks
Разрядность: 24bit / 96kHz
Количество каналов: 2.0
-О релизе

This recital of Austro-German repertoire (albeit composed to Italian and English texts) was prompted by Callas’s indignation on discovering that her EMI producer, Walter Legge, had chosen his wife, Elisabeth Schwarzkopf, for a recording of the Verdi Requiem. ‘If your wife can sing my repertoire, then I can sing hers,’ declared Callas. As it turned out, she complemented arias from ‘Schwarzkopf roles’ (Donna Elvira and Countess Almaviva) with one of Donna Anna’s arias and with scenas by Beethoven and Weber that she had first learned as a student in Athens. (She had sung Leonore in Fidelio in Greece at the age of just 21.) ‘The disc shows the voice in the excitingly fresh condition that was heard in the Covent Garden Toscas [1964],’ wrote Gramophone. ‘The Callas personality is here at its most intense. This tigress is fiercer than ever, in some ways more exciting than ever. The flashing eyes seem to drill into one, and the scalp tingles … This is an exciting disc to fire and excite admirers.’

ОтчётыДинамический диапазон

foobar2000 1.2.2 / Dynamic Range Meter 1.1.1
log date: 2015-03-09 22:25:20
Analyzed: Maria Callas, Orchestre de la Société des Concerts du Conservatoire, Nicola Rescigno / Mozart, Beethoven, Weber Arias
DR Peak RMS Duration Track
DR10 -1.88 dB -17.59 dB 14:28 ?-"Ah ! perfido", Op. 65:Scena & Aria
DR9 -2.29 dB -14.43 dB 3:12 ?-Don Giovanni, K. 527:Act 1: "Or sai chi l'onore" (Donna Anna)
DR9 -5.01 dB -19.82 dB 4:12 ?-Le Nozze di Figaro, K. 492:Act 2: "Porgi, amor" (Countess)
DR9 -2.09 dB -15.84 dB 9:02 ?-Oberon, J. 306:Act 2: "Ocean! thou mighty monster" (Reiza)
DR10 -2.89 dB -17.11 dB 6:57 ?-Don Giovanni, K. 527:Act 2: "Non mir dir" (Donna Anna)
DR10 -2.19 dB -15.81 dB 6:36 ?-Don Giovanni, K. 527:Act 2: "In quali eccessi, O Numi!...Mi tradi quell'alma ingrata" (Donna Anna)
Number of tracks: 6
Official DR value: DR10
Samplerate: 96000 Hz
Channels: 2
Bits per sample: 24
Bitrate: 2878 kbps
Codec: FLAC

Скриншот спектра частот

Доп. информация

При скачивании, если необходимо, переименуйте папку, в которой будет находиться альбомБольшая просьба к скачавшим поддерживать раздачу! Помогайте другим, ведь вам тоже может понадобиться помощь!Не забываем говорить "Спасибо"!Комментарии приветствуются!
Maria Callas Hi-Res
Torrent: Registered [ 2016-03-20 00:10 ] · 2B5BD0433CFCB69DF4B697C762B4B21B2989F81B

Download .torrent


19 KB

Status: checked
Completed: 0 times
Size: 915 MB

Quick Reply


Heads necessary to send messages to enable JavaScript
Display posts:    

Current time is: 23-Oct 20:58

All times are UTC + 3

You can post new topics in this forum
You can reply to topics in this forum
You cannot edit your posts in this forum
You cannot delete your posts in this forum
You cannot vote in polls in this forum
You cannot attach files in this forum
You can download files in this forum