(Opera, Vocal) Rene Pape - Wagner (Die Walkure, Parsifal, Lohengrin, Tannhauser, Die Meistersinger von Nurnberg, Das Rheingold) - 2011, FLAC (image+.cue), lossless


 

[Цитировать]

René Pape - Wagner
Жанр: Opera, Vocal
Страна-производитель диска: Германия
Год издания: 2011
Издатель (лейбл): Deutsche Grammophon
Дата записи: 2010
Аудиокодек: FLAC
Тип рипа: image+.cue
Битрейт аудио: lossless
Продолжительность: 63:03
Источник: релизер (Canarias es Musica)
Треклист:
Operas by Richard Wagner:
Die Walküre (The Valkyrie):
1. Act 3 - Wotans Abschied und Feuerzauber. Leb wohl, du kühnes, herrliches Kind! [04:41];
2. Act 3 - Wotans Abschied und Feuerzauber. Der Augen leuchtendes Paar [05:56];
3. Act 3 - Wotans Abschied und Feuerzauber. Loge, hör! [04:43];
Die Meistersinger von Nürnberg (The Mastersingers of Nuremberg):
4. Act 2 - Fliedermonolog. Was duftet doch der Flieder [06:41];
5. Act 2 - Hört, ihr Leut [02:38];
6. Act 3 - Verachtet mir die Meister nicht [06:35];
Lohengrin:
7. Act 1 - Gott grüß euch, liebe Männer von Brabant! [02:58];
Parsifal:
8. Act 3 - Oh Gnade! Höchstes Heil! - Oh Herr! War es ein Fluch [06:13];
9. Act 3 - Und ich, ich bin's - Nicht doch! Die heilge Quelle selbst [05:28];
10. Act 3 - Gesegnet sei, du Reiner, durch das Reine! [05:00];
11. Act 3 - Wie dünkt mich doch die Aue [06:53];
Tannhäuser:
12. Act 3 - Wie Todesahnung... O du mein holder Abendstern [04:55];
Das Rheingold:
13. Scene 2 - Vollendet das ewige Werk [01:35].
Исполнители:
René Pape, bass,
Plácido Domingo, tenor (tracks 9, 11),
Daniel Barenboim, conductor,
Staatskapelle Berlin.
Recording Date: June, 2010.

Лог создания рипа

X Lossless Decoder version 20140504 (147.0)
XLD extraction logfile from 2014-10-06 19:25:51 +0100
Bryn Terfel & Claudio Abbado / Richard Wagner
Used drive : MATSHITA DVD-R UJ-8A8 (revision HB14)
Media type : Pressed CD
Ripper mode : XLD Secure Ripper
Disable audio cache : OK for the drive with a cache less than 1375KiB
Make use of C2 pointers : NO
Read offset correction : 102
Max retry count : 20
Gap status : Analyzed, Appended
TOC of the extracted CD
Track | Start | Length | Start sector | End sector
---------------------------------------------------------
1 | 00:00:00 | 10:37:00 | 0 | 47774
2 | 10:37:00 | 10:56:00 | 47775 | 96974
3 | 21:33:00 | 07:15:00 | 96975 | 129599
4 | 28:48:00 | 06:49:00 | 129600 | 160274
5 | 35:37:00 | 05:40:00 | 160275 | 185774
6 | 41:17:00 | 08:05:00 | 185775 | 222149
7 | 49:22:00 | 06:26:00 | 222150 | 251099
8 | 55:48:00 | 16:09:00 | 251100 | 323774
List of alternate offset correction values
# | Absolute | Relative | Confidence
------------------------------------------
1 | -549 | -651 | 156
AccurateRip Summary (DiscID: 0015a0d1-008de326-7510dd08)
Track 01 : OK (v1+v2, confidence 30/44)
Track 02 : OK (v1+v2, confidence 29/44)
Track 03 : OK (v1+v2, confidence 28/43)
Track 04 : OK (v1+v2, confidence 27/40)
Track 05 : OK (v1+v2, confidence 28/42)
Track 06 : OK (v1+v2, confidence 27/42)
Track 07 : OK (v1+v2, confidence 27/42)
Track 08 : OK (v1+v2, confidence 26/41)
->All tracks accurately ripped.
All Tracks
Filename : /Users/juan/Downloads/Richard Wagner.flac
CRC32 hash : D83E448D
CRC32 hash (skip zero) : 4C0B37DD
Statistics
Read error : 0
Jitter error (maybe fixed) : 0
Retry sector count : 0
Damaged sector count : 0
Track 01
Pre-gap length : 00:02:00
CRC32 hash : 7809E07E
CRC32 hash (skip zero) : 6039C31C
AccurateRip v1 signature : D8077A04
AccurateRip v2 signature : 3D778C83
->Accurately ripped (v1+v2, confidence 14+16/44)
Statistics
Read error : 0
Jitter error (maybe fixed) : 0
Retry sector count : 0
Damaged sector count : 0
Track 02
CRC32 hash : F4AB1213
CRC32 hash (skip zero) : DB04C9BF
AccurateRip v1 signature : 661E45ED
AccurateRip v2 signature : 66C6C075
->Accurately ripped (v1+v2, confidence 14+15/44)
Statistics
Read error : 0
Jitter error (maybe fixed) : 0
Retry sector count : 0
Damaged sector count : 0
Track 03
CRC32 hash : 64C77030
CRC32 hash (skip zero) : BDDA57F5
AccurateRip v1 signature : 197E0452
AccurateRip v2 signature : EF39D42D
->Accurately ripped (v1+v2, confidence 14+14/43)
Statistics
Read error : 0
Jitter error (maybe fixed) : 0
Retry sector count : 0
Damaged sector count : 0
Track 04
CRC32 hash : 70455D64
CRC32 hash (skip zero) : 7BBF4C9A
AccurateRip v1 signature : 551291D6
AccurateRip v2 signature : 4B323C19
->Accurately ripped (v1+v2, confidence 12+15/40)
Statistics
Read error : 0
Jitter error (maybe fixed) : 0
Retry sector count : 0
Damaged sector count : 0
Track 05
CRC32 hash : D8D24E9F
CRC32 hash (skip zero) : 8F287F88
AccurateRip v1 signature : 91104CC0
AccurateRip v2 signature : 3AC74206
->Accurately ripped (v1+v2, confidence 12+16/42)
Statistics
Read error : 0
Jitter error (maybe fixed) : 0
Retry sector count : 0
Damaged sector count : 0
Track 06
CRC32 hash : 4DCF7FC7
CRC32 hash (skip zero) : EB0059B1
AccurateRip v1 signature : 60B7B7AE
AccurateRip v2 signature : 5B9C494D
->Accurately ripped (v1+v2, confidence 12+15/42)
Statistics
Read error : 0
Jitter error (maybe fixed) : 0
Retry sector count : 0
Damaged sector count : 0
Track 07
CRC32 hash : 0B8D8687
CRC32 hash (skip zero) : A6C0943F
AccurateRip v1 signature : 344FA4F6
AccurateRip v2 signature : 26131307
->Accurately ripped (v1+v2, confidence 11+16/42)
Statistics
Read error : 0
Jitter error (maybe fixed) : 0
Retry sector count : 0
Damaged sector count : 0
Track 08
CRC32 hash : 186CF525
CRC32 hash (skip zero) : A77AD3F4
AccurateRip v1 signature : 239387B5
AccurateRip v2 signature : 419CC002
->Accurately ripped (v1+v2, confidence 12+14/41)
Statistics
Read error : 0
Jitter error (maybe fixed) : 0
Retry sector count : 0
Damaged sector count : 0
No errors occurred
End of status report



Показать сообщения:    

Текущее время: 10-Дек 19:39

Часовой пояс: UTC + 3


Вы не можете начинать темы
Вы не можете отвечать на сообщения
Вы не можете редактировать свои сообщения
Вы не можете удалять свои сообщения
Вы не можете голосовать в опросах
Вы не можете прикреплять файлы к сообщениям
Вы не можете скачивать файлы