(Opera) Giacomo Puccini - Tosca / Джакомо Пуччини - Тоска (Cornel Trailescu; Virginia Zeani, Nicolae Herlea, Corneliu Fanateanu) - 1977 - studio record / 1996, FLAC (image+.cue), lossless


 

[Цитировать]

Giacomo Puccini - Tosca / Джакомо Пуччини - Тоска (Cornel Trailescu; Virginia Zeani, Nicolae Herlea, Corneliu Fanateanu)
Жанр: Opera
Страна-производитель диска: Aнглия
Год издания диска: 1996
Издатель (лейбл): IMP Classics
Дата записи: 1977
Аудиокодек: FLAC
Тип рипа: image+.cue
Битрейт аудио: lossless
Продолжительность: 02:06:19
Источник: релизер (Canarias en Musica)
Исполнители:
Floria Tosca - Virginia Zeani,
Il barone Scarpia - Nicolae Herlea,
Mario Cavaradossi - Corneliu Fanateanu,
Il Sagristano - Constantin Gabor,
Cesare Angelotti - Gheorghe Grasnaru,
Spoletta - Nicolae Andreescu,
Sciarrone - Adrian Stefanescu,
Un pastore - Emilia Oprea,
Un carceriere - Pompei Harasteanu.
Cornel Trailescu, Conductor,
Orchestra of National Opera of Bucharest,
Chorus of National Opera of Bucharest.
Studio record made in 1977 in Bucharest, Romania.

Треклист

Disc 1:
Act I:
1. "Ah! Finalmente!"
2. "Dammi i colori!"
3. "Gente là dentro!"
4. "Mario! Mario! Son qui!"
5. "Ah, quegli occhi"
6. "È buona la mia Tosca" / "Sommo giubilo, Eccelenza!"
7. "Fu grave sbaglio" / "Un tal baccano in chiesa!"
8. "Tosca divina" / "Or tutto è chiaro"
9. "Ed io venivo a lui"
10. "Tre sbirri, una carrozza"
Act II:
11. "Tosca è un buon falco"
12. ''Ella Verra" / "Ha più forte sapore"
13. "Meno male!"
14. "Ov'è Angelotti?"
15. "Ed or fra noi parliam da boni amici"
Disc 2:
1. "Orsù, Tosca, parlate"
2. "Floria! Amore!"
3. "Vittoria! Vittoria!"
4. "Già, mi dicon vena" / "Se la giurata fede"
5. "Vissi d'arte"
6. "Vedi, le man giunte io stendo a te"
7. "E qual via scegliete?"
Act III:
8. Prelude "Io de' sospiri"
9. "Mario Cavaradossi?"
10. "E lucevan le stelle"
11. "Ah! Franchigia a Floria Tosca"
12. "O dolci mani"
13. "E non giungono"
14. "Come é lunga l'attesa"
15. "Presto, su! Mario! Mario!"

Лог создания рипа

Лог создания рипа CD 1

X Lossless Decoder version 20140504 (147.0)
XLD extraction logfile from 2014-07-09 13:35:57 +0100
Giacomo Puccini / Tosca (1 of 2) - Virginia Zeani, Corneliu Fanateanu,Nicolae Herlea
Used drive : MATSHITA DVD-R UJ-8A8 (revision HB14)
Media type : Pressed CD
Ripper mode : XLD Secure Ripper
Disable audio cache : OK for the drive with a cache less than 1375KiB
Make use of C2 pointers : NO
Read offset correction : 102
Max retry count : 20
Gap status : Analyzed, Appended
TOC of the extracted CD
Track | Start | Length | Start sector | End sector
---------------------------------------------------------
1 | 00:00:32 | 06:02:45 | 32 | 27226
2 | 06:03:02 | 04:43:55 | 27227 | 48506
3 | 10:46:57 | 01:10:45 | 48507 | 53801
4 | 11:57:27 | 07:33:33 | 53802 | 87809
5 | 19:30:60 | 05:35:25 | 87810 | 112959
6 | 25:06:10 | 05:26:00 | 112960 | 137409
7 | 30:32:10 | 04:10:10 | 137410 | 156169
8 | 34:42:20 | 03:35:15 | 156170 | 172309
9 | 38:17:35 | 04:18:70 | 172310 | 191729
10 | 42:36:30 | 04:26:70 | 191730 | 211749
11 | 47:03:25 | 03:22:02 | 211750 | 226901
12 | 50:25:27 | 02:26:38 | 226902 | 237889
13 | 52:51:65 | 02:36:35 | 237890 | 249624
14 | 55:28:25 | 01:50:52 | 249625 | 257926
15 | 57:19:02 | 05:10:33 | 257927 | 281209
16 | 62:29:35 | 03:55:70 | 281210 | 298904
AccurateRip Summary
Disc not found in AccurateRip DB.
All Tracks
Filename : /Users/juan/Music/Tosca (1 of 2) - Virginia Zeani, Corneliu Fanateanu,Nicolae Herlea.flac
CRC32 hash : BA55086A
CRC32 hash (skip zero) : EF6394F8
Statistics
Read error : 0
Jitter error (maybe fixed) : 0
Retry sector count : 0
Damaged sector count : 0
Track 01
Pre-gap length : 00:02:32
CRC32 hash : 3F8EEB99
CRC32 hash (skip zero) : 8EDD4485
AccurateRip v1 signature : C8C87220
AccurateRip v2 signature : 5153463A
->Track not present in AccurateRip database.
Statistics
Read error : 0
Jitter error (maybe fixed) : 0
Retry sector count : 0
Damaged sector count : 0
Track 02
CRC32 hash : E01018AB
CRC32 hash (skip zero) : FD231A0F
AccurateRip v1 signature : DF82F315
AccurateRip v2 signature : BFE29E3E
->Track not present in AccurateRip database.
Statistics
Read error : 0
Jitter error (maybe fixed) : 0
Retry sector count : 0
Damaged sector count : 0
Track 03
CRC32 hash : AC60EC6F
CRC32 hash (skip zero) : 1FBEF363
AccurateRip v1 signature : 9EE5E577
AccurateRip v2 signature : B31C0B12
->Track not present in AccurateRip database.
Statistics
Read error : 0
Jitter error (maybe fixed) : 0
Retry sector count : 0
Damaged sector count : 0
Track 04
CRC32 hash : AA80C347
CRC32 hash (skip zero) : 423CA470
AccurateRip v1 signature : 028EDDAA
AccurateRip v2 signature : AAF00893
->Track not present in AccurateRip database.
Statistics
Read error : 0
Jitter error (maybe fixed) : 0
Retry sector count : 0
Damaged sector count : 0
Track 05
CRC32 hash : DE292EE3
CRC32 hash (skip zero) : CEBD0B40
AccurateRip v1 signature : 0A1982F1
AccurateRip v2 signature : 93535D81
->Track not present in AccurateRip database.
Statistics
Read error : 0
Jitter error (maybe fixed) : 0
Retry sector count : 0
Damaged sector count : 0
Track 06
CRC32 hash : 87074245
CRC32 hash (skip zero) : 70836962
AccurateRip v1 signature : 7BC40365
AccurateRip v2 signature : 64B39A20
->Track not present in AccurateRip database.
Statistics
Read error : 0
Jitter error (maybe fixed) : 0
Retry sector count : 0
Damaged sector count : 0
Track 07
CRC32 hash : 8679F326
CRC32 hash (skip zero) : D66E523F
AccurateRip v1 signature : 3B5E5CFD
AccurateRip v2 signature : DA4ACD27
->Track not present in AccurateRip database.
Statistics
Read error : 0
Jitter error (maybe fixed) : 0
Retry sector count : 0
Damaged sector count : 0
Track 08
CRC32 hash : 06728255
CRC32 hash (skip zero) : FDA2D6F3
AccurateRip v1 signature : F78C4B98
AccurateRip v2 signature : 07B85A59
->Track not present in AccurateRip database.
Statistics
Read error : 0
Jitter error (maybe fixed) : 0
Retry sector count : 0
Damaged sector count : 0
Track 09
CRC32 hash : 3F196B9A
CRC32 hash (skip zero) : FB7F9525
AccurateRip v1 signature : 25ACD785
AccurateRip v2 signature : D531EB2D
->Track not present in AccurateRip database.
Statistics
Read error : 0
Jitter error (maybe fixed) : 0
Retry sector count : 0
Damaged sector count : 0
Track 10
CRC32 hash : 0E47849E
CRC32 hash (skip zero) : 2E71D512
AccurateRip v1 signature : F2BED7A0
AccurateRip v2 signature : 3C9C6C98
->Track not present in AccurateRip database.
Statistics
Read error : 0
Jitter error (maybe fixed) : 0
Retry sector count : 0
Damaged sector count : 0
Track 11
Pre-gap length : 00:07:03
CRC32 hash : 8C111C5E
CRC32 hash (skip zero) : 0B137E29
AccurateRip v1 signature : 71329657
AccurateRip v2 signature : 047BBCCC
->Track not present in AccurateRip database.
Statistics
Read error : 0
Jitter error (maybe fixed) : 0
Retry sector count : 0
Damaged sector count : 0
Track 12
CRC32 hash : 0FF2DACB
CRC32 hash (skip zero) : C32A47CA
AccurateRip v1 signature : 44BDD9A1
AccurateRip v2 signature : 8CC68912
->Track not present in AccurateRip database.
Statistics
Read error : 0
Jitter error (maybe fixed) : 0
Retry sector count : 0
Damaged sector count : 0
Track 13
CRC32 hash : 593705CA
CRC32 hash (skip zero) : 142F2999
AccurateRip v1 signature : 6CAF4443
AccurateRip v2 signature : 4807940C
->Track not present in AccurateRip database.
Statistics
Read error : 0
Jitter error (maybe fixed) : 0
Retry sector count : 0
Damaged sector count : 0
Track 14
CRC32 hash : 382DE109
CRC32 hash (skip zero) : 0206DA0C
AccurateRip v1 signature : 6E974B54
AccurateRip v2 signature : 8B0135C8
->Track not present in AccurateRip database.
Statistics
Read error : 0
Jitter error (maybe fixed) : 0
Retry sector count : 0
Damaged sector count : 0
Track 15
CRC32 hash : E99D3F86
CRC32 hash (skip zero) : 3BD03AB5
AccurateRip v1 signature : 76CDF14D
AccurateRip v2 signature : EC072020
->Track not present in AccurateRip database.
Statistics
Read error : 0
Jitter error (maybe fixed) : 0
Retry sector count : 0
Damaged sector count : 0
Track 16
CRC32 hash : 5A010640
CRC32 hash (skip zero) : 43B67B0C
AccurateRip v1 signature : 2EB32124
AccurateRip v2 signature : 1F9F1958
->Track not present in AccurateRip database.
Statistics
Read error : 0
Jitter error (maybe fixed) : 0
Retry sector count : 0
Damaged sector count : 0
No errors occurred
End of status report

Лог создания рипа CD 2

X Lossless Decoder version 20140504 (147.0)
XLD extraction logfile from 2014-07-09 13:45:53 +0100
Giacomo Puccini / Tosca (2 of 2) - Virginia Zeani, Corneliu Fanateanu,Nicolae Herlea
Used drive : MATSHITA DVD-R UJ-8A8 (revision HB14)
Media type : Pressed CD
Ripper mode : XLD Secure Ripper
Disable audio cache : OK for the drive with a cache less than 1375KiB
Make use of C2 pointers : NO
Read offset correction : 102
Max retry count : 20
Gap status : Analyzed, Appended
TOC of the extracted CD
Track | Start | Length | Start sector | End sector
---------------------------------------------------------
1 | 00:00:32 | 01:26:50 | 32 | 6531
2 | 01:27:07 | 03:35:58 | 6532 | 22714
3 | 05:02:65 | 03:51:10 | 22715 | 40049
4 | 08:54:00 | 03:51:17 | 40050 | 57391
5 | 12:45:17 | 03:50:63 | 57392 | 74704
6 | 16:36:05 | 06:54:42 | 74705 | 105796
7 | 23:30:47 | 06:11:23 | 105797 | 133644
8 | 29:41:70 | 03:44:22 | 133645 | 150466
9 | 33:26:17 | 04:07:10 | 150467 | 169001
10 | 37:33:27 | 02:44:48 | 169002 | 181349
11 | 40:18:00 | 05:29:32 | 181350 | 206056
12 | 45:47:32 | 02:45:25 | 206057 | 218456
13 | 48:32:57 | 02:31:18 | 218457 | 229799
14 | 51:04:00 | 01:37:27 | 229800 | 237101
AccurateRip Summary
Disc not found in AccurateRip DB.
All Tracks
Filename : /Users/juan/Music/Tosca (2 of 2) - Virginia Zeani, Corneliu Fanateanu,Nicolae Herlea.flac
CRC32 hash : 726C7362
CRC32 hash (skip zero) : 35DB4B27
Statistics
Read error : 0
Jitter error (maybe fixed) : 0
Retry sector count : 0
Damaged sector count : 0
Track 01
Pre-gap length : 00:02:32
CRC32 hash : 6DD92227
CRC32 hash (skip zero) : 043905F5
AccurateRip v1 signature : 7C60406D
AccurateRip v2 signature : 3F0F65E0
->Track not present in AccurateRip database.
Statistics
Read error : 0
Jitter error (maybe fixed) : 0
Retry sector count : 0
Damaged sector count : 0
Track 02
CRC32 hash : 1E0C6720
CRC32 hash (skip zero) : 62BA90A0
AccurateRip v1 signature : B783DFAA
AccurateRip v2 signature : BA38718B
->Track not present in AccurateRip database.
Statistics
Read error : 0
Jitter error (maybe fixed) : 0
Retry sector count : 0
Damaged sector count : 0
Track 03
CRC32 hash : E843DFB8
CRC32 hash (skip zero) : A9A82731
AccurateRip v1 signature : DC355D35
AccurateRip v2 signature : 05876B6A
->Track not present in AccurateRip database.
Statistics
Read error : 0
Jitter error (maybe fixed) : 0
Retry sector count : 0
Damaged sector count : 0
Track 04
CRC32 hash : E0F92ABA
CRC32 hash (skip zero) : F545049F
AccurateRip v1 signature : 594F2236
AccurateRip v2 signature : C1852191
->Track not present in AccurateRip database.
Statistics
Read error : 0
Jitter error (maybe fixed) : 0
Retry sector count : 0
Damaged sector count : 0
Track 05
Pre-gap length : 00:00:40
CRC32 hash : 99CB91CF
CRC32 hash (skip zero) : ECB25A3D
AccurateRip v1 signature : 0A9979D1
AccurateRip v2 signature : DEBFDDCB
->Track not present in AccurateRip database.
Statistics
Read error : 0
Jitter error (maybe fixed) : 0
Retry sector count : 0
Damaged sector count : 0
Track 06
CRC32 hash : 507BB1CF
CRC32 hash (skip zero) : 1F0A902F
AccurateRip v1 signature : 359ED3FA
AccurateRip v2 signature : 45A852C9
->Track not present in AccurateRip database.
Statistics
Read error : 0
Jitter error (maybe fixed) : 0
Retry sector count : 0
Damaged sector count : 0
Track 07
Pre-gap length : 00:06:42
CRC32 hash : 471F5D70
CRC32 hash (skip zero) : FE3C8A3E
AccurateRip v1 signature : 5F404726
AccurateRip v2 signature : 01E56386
->Track not present in AccurateRip database.
Statistics
Read error : 0
Jitter error (maybe fixed) : 0
Retry sector count : 0
Damaged sector count : 0
Track 08
CRC32 hash : D3549C78
CRC32 hash (skip zero) : 0AD919D3
AccurateRip v1 signature : 19582BCD
AccurateRip v2 signature : D554C28D
->Track not present in AccurateRip database.
Statistics
Read error : 0
Jitter error (maybe fixed) : 0
Retry sector count : 0
Damaged sector count : 0
Track 09
CRC32 hash : F460BA57
CRC32 hash (skip zero) : 1CC62955
AccurateRip v1 signature : 2A8EFF14
AccurateRip v2 signature : 13430667
->Track not present in AccurateRip database.
Statistics
Read error : 0
Jitter error (maybe fixed) : 0
Retry sector count : 0
Damaged sector count : 0
Track 10
CRC32 hash : 9165D77D
CRC32 hash (skip zero) : D2FED5CB
AccurateRip v1 signature : D885F4CE
AccurateRip v2 signature : 30949A7D
->Track not present in AccurateRip database.
Statistics
Read error : 0
Jitter error (maybe fixed) : 0
Retry sector count : 0
Damaged sector count : 0
Track 11
CRC32 hash : 46D3ABC6
CRC32 hash (skip zero) : C3AD0457
AccurateRip v1 signature : 2297B882
AccurateRip v2 signature : 11567BED
->Track not present in AccurateRip database.
Statistics
Read error : 0
Jitter error (maybe fixed) : 0
Retry sector count : 0
Damaged sector count : 0
Track 12
CRC32 hash : 1E9C3896
CRC32 hash (skip zero) : 71337F80
AccurateRip v1 signature : 3D0C8007
AccurateRip v2 signature : 47486E1D
->Track not present in AccurateRip database.
Statistics
Read error : 0
Jitter error (maybe fixed) : 0
Retry sector count : 0
Damaged sector count : 0
Track 13
CRC32 hash : 943D27F2
CRC32 hash (skip zero) : 96A62EE8
AccurateRip v1 signature : 3DFE2008
AccurateRip v2 signature : 48ED42ED
->Track not present in AccurateRip database.
Statistics
Read error : 0
Jitter error (maybe fixed) : 0
Retry sector count : 0
Damaged sector count : 0
Track 14
CRC32 hash : 1BD691C1
CRC32 hash (skip zero) : F245FA93
AccurateRip v1 signature : DE526684
AccurateRip v2 signature : B04B2FB7
->Track not present in AccurateRip database.
Statistics
Read error : 0
Jitter error (maybe fixed) : 0
Retry sector count : 0
Damaged sector count : 0
No errors occurred
End of status report



Показать сообщения:    

Текущее время: 03-Дек 05:27

Часовой пояс: UTC + 3


Вы не можете начинать темы
Вы не можете отвечать на сообщения
Вы не можете редактировать свои сообщения
Вы не можете удалять свои сообщения
Вы не можете голосовать в опросах
Вы не можете прикреплять файлы к сообщениям
Вы не можете скачивать файлы