(Classical) Marc-Antoine Charpentier - Messe de Monsieur de Mauroy - Le Concert Spirituel, Herve Niquet - 2009, FLAC (image+.cue) lossless


Статистика раздачи [Обновить пиров]
Размер:  345 MB   |    Зарегистрирован:  8 месяцев 14 дней   |    Скачан:  0 раз

Полного источника не было: Никогда

 
   
 
 
 

[Цитировать]

Marc-Antoine Charpentier - Messe de Monsieur de Mauroy - Le Concert Spirituel, Hervé Niquet
Жанр: Classical
Страна-производитель диска: Spain
Год издания диска: 2009
Издатель (лейбл): Glossa
Номер по каталогу: GCD C81602
Дата записи: 1999
Аудиокодек: FLAC
Тип рипа: image+.cue
Битрейт аудио: lossless
Продолжительность: 65:51
Источник: собственный рип
Наличие сканов в содержимом раздачи: да
Треклист:
Marc-Antoine Charpentier (1643-1704)
[1]-[17] Messe de Monsieur de Mauroy
Исполнители:
Le Concert Spirituel
Hervé Niquet

Лог создания рипа

Exact Audio Copy V1.0 beta 3 from 29. August 2011
EAC extraction logfile from 7. March 2015, 16:46
Le Concert Spirituel, Herve Niquet / Charpentier - Messe de Monsieur de Mauroy
Used drive : HL-DT-STDVDRAM GU70N Adapter: 0 ID: 0
Read mode : Secure
Utilize accurate stream : Yes
Defeat audio cache : Yes
Make use of C2 pointers : No
Read offset correction : 48
Overread into Lead-In and Lead-Out : No
Fill up missing offset samples with silence : Yes
Delete leading and trailing silent blocks : No
Null samples used in CRC calculations : Yes
Used interface : Native Win32 interface for Win NT & 2000
Used output format : User Defined Encoder
Selected bitrate : 128 kBit/s
Quality : High
Add ID3 tag : No
Command line compressor : C:\Program Files (x86)\Exact Audio Copy\Flac\flac.exe
Additional command line options : -V -8 -T "Date=%year%" -T "Genre=%genre%" %source%
TOC of the extracted CD
Track | Start | Length | Start sector | End sector
---------------------------------------------------------
1 | 0:00.00 | 1:31.02 | 0 | 6826
2 | 1:31.02 | 4:19.50 | 6827 | 26301
3 | 5:50.52 | 3:22.04 | 26302 | 41455
4 | 9:12.56 | 4:56.55 | 41456 | 63710
5 | 14:09.36 | 12:26.44 | 63711 | 119704
6 | 26:36.05 | 17:26.41 | 119705 | 198195
7 | 44:02.46 | 4:08.62 | 198196 | 216857
8 | 48:11.33 | 1:02.69 | 216858 | 221576
9 | 49:14.27 | 0:47.55 | 221577 | 225156
10 | 50:02.07 | 1:36.28 | 225157 | 232384
11 | 51:38.35 | 2:30.32 | 232385 | 243666
12 | 54:08.67 | 1:57.72 | 243667 | 252513
13 | 56:06.64 | 1:10.08 | 252514 | 257771
14 | 57:16.72 | 2:33.47 | 257772 | 269293
15 | 59:50.44 | 1:42.70 | 269294 | 277013
16 | 61:33.39 | 2:50.64 | 277014 | 289827
17 | 64:24.28 | 1:25.08 | 289828 | 296210
Range status and errors
Selected range
Filename C:\temp\GCD C81602 Charpentier - Messe de Monsieur Mauroy\Charpentier - Messe de Monsieur de Mauroy.wav
Peak level 99.8 %
Extraction speed 2.1 X
Range quality 99.9 %
Test CRC 1267E4F5
Copy CRC 1267E4F5
Copy OK
No errors occurred
AccurateRip summary
Track 1 accurately ripped (confidence 4) [B6F2A6C0] (AR v2)
Track 2 accurately ripped (confidence 4) [A069DF02] (AR v2)
Track 3 accurately ripped (confidence 4) [460FEB34] (AR v2)
Track 4 accurately ripped (confidence 4) [F75A42E3] (AR v2)
Track 5 accurately ripped (confidence 4) [485E4847] (AR v2)
Track 6 accurately ripped (confidence 4) [4EF2C64A] (AR v2)
Track 7 accurately ripped (confidence 4) [18910BB4] (AR v2)
Track 8 accurately ripped (confidence 4) [C2A10B93] (AR v2)
Track 9 accurately ripped (confidence 4) [2706A443] (AR v2)
Track 10 accurately ripped (confidence 4) [6F7C5C7A] (AR v2)
Track 11 accurately ripped (confidence 4) [747931ED] (AR v2)
Track 12 accurately ripped (confidence 4) [8A3C2DF6] (AR v2)
Track 13 accurately ripped (confidence 4) [ED95B50D] (AR v2)
Track 14 accurately ripped (confidence 4) [A2B194B8] (AR v2)
Track 15 accurately ripped (confidence 4) [498ECA0C] (AR v2)
Track 16 accurately ripped (confidence 4) [80A7EA45] (AR v2)
Track 17 accurately ripped (confidence 4) [5FB307BE] (AR v2)
All tracks accurately ripped
End of status report
==== Log checksum 22A2871CD1518AC8950A4ED45B3D27106BBD3C392038FF662DCE4AB0D2010DB9 ====
[teatrix.ru].t20589.torrent 
Торрент: Зарегистрирован [ 2016-03-20 00:14 ] · BDCDE5A3DC5E616D3DB57487A6B2751EA1E305AF

Скачать .torrent

Скачать

29 KB

Статус: проверено
Скачан: 0 раз
Размер: 345 MB
terms.php



Быстрый ответ

Имя:

      
Для отправки сообщений необходимо включить JavaScript
Показать сообщения:    

Текущее время: 03-Дек 09:41

Часовой пояс: UTC + 3


Вы можете начинать темы
Вы можете отвечать на сообщения
Вы не можете редактировать свои сообщения
Вы не можете удалять свои сообщения
Вы не можете голосовать в опросах
Вы не можете прикреплять файлы к сообщениям
Вы можете скачивать файлы