[TR24][OF] Wolfgang Amadeus Mozart: Violin Concerto No.5 / Henri Vieuxtemps: Violin Concerto No.4 - Hilary Hahn, The Deutsche Kammerphilharmonie Bremen, Paavo Järvi (Jarvi) - 2015 (Classical)


Статистика раздачи [Обновить пиров]
Размер:  1.21 GB   |    Зарегистрирован:  8 месяцев 22 дня   |    Скачан:  0 раз

Полного источника не было: Никогда

 
   
 
 
 

[Цитировать]

Wolfgang Amadeus Mozart: Violin Concerto No.5
Henri Vieuxtemps: Violin Concerto No.4
Hilary Hahn · The Deutsche Kammerphilharmonie Bremen · Paavo Järvi
- Год издания: 2015
Жанр: Classical
Издатель: Deutsche Grammophon
Продолжительность: 01:03:53
Наличие сканов: Sleeve, Digital Booklet
- -
Wolfgang Amadeus Mozart (1756-1791)
Violin Concerto No.5 In A, K.219
01. I. Allegro aperto (10:10)
02. II. Adagio (10:06)
03. III. Rondeau (Tempo di minuetto) (8:55)
Henri Vieuxtemps (1820-1881)
Violin Concerto No.4 In D Minor, Op.31
04. I. Andante - Moderato (10:02)
05. II. Adagio religioso (6:17)
06. III. Scherzo. Vivace - Trio. Meno mosso (5:45)
07. IV. Finale marziale: Andante - Allegro (8:36)
Hilary Hahn and Paavo Järvi In Conversation
08. Pt. 1 (2:25)
09. Pt. 2 (1:36)

-
Hilary Hahn (violin)
The Deutsche Kammerphilharmonie Bremen
Paavo Järvi (conductor)
Recorded:
Mozart: 4 & 5 December 2012: Kammer-Philharmonie, Bremen;
Vieuxtemps: 7 & 8 August 2013: Gut Varrel, Stuhr

-
Контейнер: FLAC (*.flac)
Тип рипа: tracks
Разрядность: 24bit / 96kHz
Количество каналов: 2.0
-О релизе
The grandest, simplest, and longest-lasting adventure I ve embarked on as a musician has been my quest to expand my repertoire. Ever since early childhood, opening the sheet music to a piece I love but haven t yet played has felt like a magical combination of winning the lottery and setting out on an epic trip. The clean, unused score is a freshly printed map. The texture of the page reminds my hands that I m holding a small, three-dimensional part of the composer s legacy. I m excited to think that each new work brings infinite expressive possibilities, and that it could stay in my repertoire for decades. Those hopes don t always pan out, but in the course of one significant early year in my life, they did twice. At the age of 10, I was given the violin parts to both Vieuxtemps s Concerto No. 4 and Mozart s Concerto No. 5. - Hilary Hahn
After her last two albums of completely new compositions, Silfra and In 27 Pieces The Hilary Hahn Encores , Hilary returns with classic-romantic repertoire
Two-times Grammy Award-winning violinist Hilary Hahn now combines Mozart s beloved Concerto in A, K 219 with its fiery Turkish episode with the rich, virtuosic romanticism of Vieuxtemps Violin Concerto No. 4.
More than 25 years have passed since Hilary first learned both concertos: Ever since early childhood, opening the sheet music to a piece I love but haven t yet played has felt like a magical combination of winning the lottery and setting out on an epic trip.
Mozart 5 and Vieuxtemps 4 are part of me. They remind me of the rich legacy of classical music and of the wonderful continuity of tradition, yet they are also timeless. When I play these notes onstage with my colleagues, I don t reflect on the past; I m caught up in the dialogue, looking forward to whatever the next phrase will bring. Hilary Hahn
A wonderful interplay of Hilary Hahn and Paavo Järvi with his orchestra The Deutsche Kammerphilharmonie Bremen.

ОтчётыДинамический диапазон

foobar2000 1.2.2 / Dynamic Range Meter 1.1.1
log date: 2015-03-11 22:34:47
--------------------------------------------------------------------------------
Analyzed: Hilary Hahn, The Deutsche Kammerphilharmonie Bremen, Paavo Järvi / Violin Concertos: Mozart 5 & Vieuxtemps 4
--------------------------------------------------------------------------------
DR Peak RMS Duration Track
--------------------------------------------------------------------------------
DR15 -2.67 dB -23.71 dB 10:10 ?-Violin Concerto No.5 In A, K.219: I. Allegro aperto
DR16 -4.41 dB -26.29 dB 10:06 ?-Violin Concerto No.5 In A, K.219: II. Adagio
DR15 -0.70 dB -22.15 dB 8:55 ?-Violin Concerto No.5 In A, K.219: III. Rondeau (Tempo di minuetto)
DR15 -0.40 dB -22.18 dB 10:02 ?-Violin Concerto No.4 In D Minor, Op.31: I. Andante - Moderato
DR16 -0.19 dB -24.50 dB 6:17 ?-Violin Concerto No.4 In D Minor, Op.31: II. Adagio religioso
DR16 -0.60 dB -22.35 dB 5:45 ?-Violin Concerto No.4 In D Minor, Op.31: III. Scherzo. Vivace - Trio. Meno mosso
DR13 -0.34 dB -19.90 dB 8:36 ?-Violin Concerto No.4 In D Minor, Op.31: IV. Finale marziale: Andante - Allegro
DR20 -2.82 dB -27.94 dB 2:25 ?-Hilary Hahn And Paavo Järvi In Conversation, Pt. 1
DR18 -5.97 dB -28.50 dB 1:36 ?-Hilary Hahn And Paavo Järvi In Conversation, Pt. 2
--------------------------------------------------------------------------------
Number of tracks: 9
Official DR value: DR16
Samplerate: 96000 Hz
Channels: 2
Bits per sample: 24
Bitrate: 1824 kbps
Codec: FLAC
================================================================================

Скриншот спектра частот

Доп. информация

При скачивании, если необходимо, переименуйте папку, в которой будет находиться альбомБольшая просьба к скачавшим поддерживать раздачу! Помогайте другим, ведь вам тоже может понадобиться помощь!Не забываем говорить "Спасибо"!Комментарии приветствуются!
[teatrix.ru].t20591.torrent 
Торрент: Зарегистрирован [ 2016-03-20 00:13 ] · F14C78E7AE13E2C8E9DFF0315ABF2104A584D247

Скачать .torrent

Скачать

14 KB

Статус: проверено
Скачан: 0 раз
Размер: 1.21 GB
terms.php



Быстрый ответ

Имя:

      
Для отправки сообщений необходимо включить JavaScript
Показать сообщения:    

Текущее время: 11-Дек 16:55

Часовой пояс: UTC + 3


Вы можете начинать темы
Вы можете отвечать на сообщения
Вы не можете редактировать свои сообщения
Вы не можете удалять свои сообщения
Вы не можете голосовать в опросах
Вы не можете прикреплять файлы к сообщениям
Вы можете скачивать файлы