[TR24][SM][OF] Alfred Schnittke/Альфред Шнитке - 3rd Symphony - Vladimir Jurowski & Rundfunk-Sinfonieorchester Berlin - 2015 (Classical)


Статистика раздачи [Обновить пиров]
Размер:  883 MB   |    Зарегистрирован:  8 месяцев 22 дня   |    Скачан:  1 раз

Полного источника не было: 1 месяц 20 дней

 
   
 
 
 

[Цитировать]

·
·Alfred Schnittke (1934 – 1998)Жанр: Symphony
Носитель: Official Digital Download
Год издания диска: 2015
Издатель(лейбл): PentaTone Classics
Номер по каталогу: PTC5186485
Продолжительность: 52:06
Наличие сканов в содержимом раздачи: cover & booklet
Контейнер: FLAC (*.flac)
Разрядность: 24/96
Количество каналов: 2.0
Формат: tracks
Источник: prestoclassical.co.uk
Pелизер: WEB (thanks to the original customer)
http://www.prestoclassical.co.uk/r/Pentatone/PTC5186485#download

Треклист

Symphony No. 3 (1981)
01 Moderato 11:21
02 Allegro 13:22
03 Allegro pesante 8:15
04 Adagio 19:08

Исполнители


Rundfunk-Sinfonieorchester Berlin
Rainer Wolters сoncertmaster
Heike Gneiting рiano
Tobias Berndt organ
Vladimir Jurowski conductor

Dynamic Range Meter

foobar2000 1.2.6 / Dynamic Range Meter 1.1.1
log date: 2015-03-12 15:47:28
--------------------------------------------------------------------------------
Analyzed: Rundfunk-Sinfonieorchester Berlin / Schnittke: Symphony No. 3
--------------------------------------------------------------------------------
DR Peak RMS Duration Track
--------------------------------------------------------------------------------
DR16 -0.50 dB -23.52 dB 11:21 01-Symphony No. 3: I. Moderato
DR16 -0.34 dB -23.40 dB 13:23 02-Symphony No. 3: II. Allegro
DR13 -0.33 dB -18.96 dB 8:15 03-Symphony No. 3: III. Allegro pesante
DR17 -0.45 dB -25.25 dB 19:09 04-Symphony No. 3: IV. Adagio
--------------------------------------------------------------------------------
Number of tracks: 4
Official DR value: DR16
Samplerate: 96000 Hz
Channels: 2
Bits per sample: 24
Bitrate: 2303 kbps
Codec: FLAC
================================================================================
[teatrix.ru].t20596.torrent 
Торрент: Зарегистрирован [ 2016-03-20 00:13 ] · EF0F047D3391F11E2F6EB1C82709B44017DFF744

Скачать .torrent

Скачать

18 KB

Статус: проверено
Скачан: 1 раз
Размер: 883 MB
terms.php



Быстрый ответ

Имя:

      
Для отправки сообщений необходимо включить JavaScript
Показать сообщения:    

Текущее время: 11-Дек 03:22

Часовой пояс: UTC + 3


Вы можете начинать темы
Вы можете отвечать на сообщения
Вы не можете редактировать свои сообщения
Вы не можете удалять свои сообщения
Вы не можете голосовать в опросах
Вы не можете прикреплять файлы к сообщениям
Вы можете скачивать файлы