Брошь и застёжка-обманка / The Brooch Pin and The Sinful Clasp (Джоанна Вудворд / Joanna Woodward) [1990, Великобритания, авторская анимация, WEBRip-AVC]


 

[Цитировать]

Брошь и застёжка-обманка / The Brooch Pin and The Sinful Clasp
Страна: Великобритания
Жанр: авторская анимация
Год выпуска: 1990
Продолжительность: 00:18:29
Перевод: не требуется
Cубтитры: нет
Режиссёр: Джоанна Вудворд / Joanna Woodward
Описание: Шагая по улице, мужчина вдруг видит балерину, танцующую на крыше небоскрёба. Мгновенно влюбившись, мужчина начинает карабкаться по отвесной стене вверх. Он ещё не знает, что балерина - это механическая брошь, застёжка на шейном платке великанши, таким образом подманивающей очередную жертву, предназначенную для начинки пирога...
Доп. информация: Гран-при фестиваля в Загребе (1990)
Качество видео: WEBRip-AVC
Формат видео: MP4
Видео: 750 kbps, 640х480 (4:3), 25.000 fps, AVC (High@L3.1)
Аудио: 110 kbps, 44.1 kHz, 2 channels, AAC (LC)

MediaInfo

General
Complete name : The Brooch Pin and The Sinful Clasp.mp4
Format : MPEG-4
Format profile : Base Media
Codec ID : isom
File size : 114 MiB
Duration : 18mn 29s
Overall bit rate mode : Variable
Overall bit rate : 863 Kbps
Encoded date : UTC 2010-02-26 19:01:38
Tagged date : UTC 2010-02-27 19:01:53
Video
ID : 1
Format : AVC
Format/Info : Advanced Video Codec
Format profile : High@L3.1
Format settings, CABAC : Yes
Format settings, ReFrames : 4 frames
Codec ID : avc1
Codec ID/Info : Advanced Video Coding
Duration : 18mn 29s
Bit rate : 750 Kbps
Maximum bit rate : 2 275 Kbps
Width : 640 pixels
Height : 480 pixels
Display aspect ratio : 4:3
Frame rate mode : Constant
Frame rate : 25.000 fps
Color space : YUV
Chroma subsampling : 4:2:0
Bit depth : 8 bits
Scan type : Progressive
Bits/(Pixel*Frame) : 0.098
Stream size : 99.2 MiB (87%)
Writing library : x264 core 72 r1217 5e9ae4c
Encoding settings : cabac=1 / ref=4 / deblock=1:0:0 / analyse=0x3:0x113 / me=hex / subme=7 / psy=1 / psy_rd=1.0:0.0 / mixed_ref=1 / me_range=16 / chroma_me=1 / trellis=1 / 8x8dct=1 / cqm=0 / deadzone=21,11 / chroma_qp_offset=-2 / threads=8 / nr=0 / decimate=1 / mbaff=0 / bframes=4 / b_pyramid=0 / b_adapt=1 / b_bias=0 / direct=3 / wpredb=1 / keyint=75 / keyint_min=25 / scenecut=40 / rc_lookahead=40 / rc=2pass / mbtree=1 / bitrate=750 / ratetol=1.0 / qcomp=0.60 / qpmin=10 / qpmax=51 / qpstep=4 / cplxblur=20.0 / qblur=0.5 / vbv_maxrate=1125 / vbv_bufsize=3750 / ip_ratio=1.40 / aq=1:1.00
Encoded date : UTC 2010-02-26 19:01:38
Tagged date : UTC 2010-02-26 19:01:53
Audio
ID : 2
Format : AAC
Format/Info : Advanced Audio Codec
Format profile : LC
Codec ID : 40
Duration : 18mn 29s
Bit rate mode : Variable
Bit rate : 110 Kbps
Maximum bit rate : 126 Kbps
Channel(s) : 2 channels
Channel positions : Front: L R
Sampling rate : 44.1 KHz
Compression mode : Lossy
Stream size : 14.5 MiB (13%)
Encoded date : UTC 2010-02-26 19:01:42
Tagged date : UTC 2010-02-26 19:01:53

Скриншот c названием фильма

Скриншоты




Показать сообщения:    

Текущее время: 03-Дек 20:38

Часовой пояс: UTC + 3


Вы не можете начинать темы
Вы не можете отвечать на сообщения
Вы не можете редактировать свои сообщения
Вы не можете удалять свои сообщения
Вы не можете голосовать в опросах
Вы не можете прикреплять файлы к сообщениям
Вы не можете скачивать файлы