[TR24][SM][OF] Benjamin Britten - War Requiem / I. Bostridge, S. Keenlyside, S. Cvilak, Choir of Eltham College, Gianandrea Noseda and London Symphony Orchestra & Chorus - 2012 (Classical)


Статистика раздачи [Обновить пиров]
Размер:  726 MB   |    Зарегистрирован:  8 месяцев 21 день   |    Скачан:  1 раз

Полного источника не было: 20 дней

 
   
 
 
 

[Цитировать]

·
·Benjamin Britten (1913-1976)·Жанр: Choral
Носитель: Official Digital Download
Год издания диска: 2012
Издатель(лейбл): LSO Live
Номер по каталогу: LSO0716
Продолжительность: 01:23:48
Наличие сканов в содержимом раздачи: booklet, inlay, sleeve
Контейнер: FLAC (*.flac)
Разрядность: 24/48
Количество каналов: 2.0
Формат: tracks
Источник: bowers-wilkins.com
Pелизер: WEB (thanks to the original customer)
http://www.bowers-wilkins.com/Society_of_Sound/Society_of_Sound/Music/gianandrea-...war-requiem.html

Треклист

War Requiem, for soprano, tenor, baritone, boys' voices, chorus, chamber orchestra, orchestra & organ, Op. 66
1 Requiem aeternam chorus 3:37
2 Te decet hymnus boys' chorus, chorus) 3:00
3 'What passing-bells for these who die as cattle?' (tenor) 2:37
4 Kyrie eleison (chorus) 1:32
Dies Irae
5 Dies irae (chorus) 3:32
6 'Bugles sang, saddening the evening air' (baritone) 2:32
7 Liber scriptus (soprano, chorus) 3:00
8 'Out there, we've walked quite friendly up to Death' (tenor, baritone) 1:42
9 Recordare lesu pie (Chorus) 3:51
10 Confutatis maledictis (chorus) 1:05
11 'Be slowly lifted up, thou long black arm' (baritone) 2:10
12 Dies irae (soprano, chorus) 3:00
13 'Move him into the sun' (tenor, soprano, chorus) 4:11
14 Pie lesu Domine (chorus) 1:35
Offertorium
15 Domine lesu Christe (boys' chorus) 1:18
16 Sed signifer sanctus (chorus) 1:51
17 'So Abram rose, and clave the wood' (baritone, tenor) 3:22
18 Hostias et preces tibi (tenor, baritone, boys' chorus, chorus) 2:40
Sanctus
19 Sanctus (soprano, chorus) 7:05
20 'After the blast of lightning from the East' (baritone) 3:34
Agnus Dei
21 'One ever hangs where shelled roads part'/Agnus Dei (tenor, chorus) 3:10
Libera Me
22 Libera me (soprano, chorus) 8:02
23 'It seemd that out of battle I escaped' (tenor) 2:50
24 'None', said the other' (baritone) 6:50
25 'Let us sleep now...' / In paradisum (tenor, baritone, soprano, boys'chorus, chorus) 4:26
26 Requiescant in pace (chorus) 1:16

Состав

London Symphony Orchestra
Gianandrea Noseda
Simon Keenlyside bass
Sabina Cvilak soprano
Ian Bostridge tenor
Choir of Eltham College
London Symphony Chorus

Dynamic Range Meter

foobar2000 1.2.6 / Dynamic Range Meter 1.1.1
log date: 2015-03-12 16:19:35
--------------------------------------------------------------------------------
Analyzed: Gianandrea Noseda, Choir of Eltham College, London Symphony Orchestra / Britten: War Requiem (1)
Gianandrea Noseda, Ian Bostridge, London Symphony Chorus, London Symphony Orchestra / Britten: War Requiem (2)
Gianandrea Noseda, Ian Bostridge, London Symphony Orchestra / Britten: War Requiem (3-4)
Gianandrea Noseda, Ian Bostridge, Sabina Cvilak, London Symphony Chorus, London Symphony Orchestra / Britten: War Requiem (5)
Gianandrea Noseda, Ian Bostridge, Simon Keenlyside, London Symphony Chorus, Choir of Eltham College, London Symphony Orchestra / Britten: War Requiem (6)
Gianandrea Noseda, Ian Bostridge, Simon Keenlyside, London Symphony Orchestra / Britten: War Requiem (7-8)
Gianandrea Noseda, Ian Bostridge, Simon Keenlyside, Sabina Cvilak, London Symphony Chorus, Choir of Eltham College, London Symphony Orchestra / Britten: War Requiem (9)
Gianandrea Noseda, London Symphony Chorus, Choir of Eltham College, London Symphony Orchestra / Britten: War Requiem (10)
Gianandrea Noseda, London Symphony Chorus, London Symphony Orchestra / Britten: War Requiem (11-18)
Gianandrea Noseda, Sabina Cvilak, London Symphony Chorus, London Symphony Orchestra / Britten: War Requiem (19-22)
Gianandrea Noseda, Simon Keenlyside, London Symphony Orchestra / Britten: War Requiem (23-26)
--------------------------------------------------------------------------------
DR Peak RMS Duration Track
--------------------------------------------------------------------------------
DR12 -23.04 dB -40.39 dB 1:18 15-Offertorium - I. Domine Jesu Christe.flac
DR13 -18.91 dB -37.94 dB 3:09 21-Agnus Dei - I. One ever hangs & Agnus Dei.flac
DR15 -12.00 dB -34.64 dB 2:37 03-Requiem aeternam - III. What passing bells.flac
DR15 -17.18 dB -40.45 dB 2:50 23-Libera me - II. It seemed that out of battle.flac
DR14 -9.33 dB -34.24 dB 4:11 13-Dies irae - IX. Move him into the sun.flac
DR18 -9.32 dB -36.83 dB 2:40 18-Offertorium - IV. Hostias et preces tibi.flac
DR13 -10.28 dB -28.75 dB 1:42 08-Dies irae - IV. Out there.flac
DR14 -11.45 dB -32.95 dB 3:22 17-Offertorium - III. So Abram rose.flac
DR14 -9.24 dB -29.98 dB 4:26 25-Libera me - IV. Let us sleep now & In paradisum.flac
DR12 -23.51 dB -40.14 dB 3:00 02-Requiem aeternam - II. Te decet hymnus.flac
DR12 -6.13 dB -31.61 dB 3:37 01-Requiem aeternam - I. Requiem aeternam.flac
DR12 -35.91 dB -52.73 dB 1:32 04-Requiem aeternam - IV. Kyrie eleison.flac
DR16 -1.23 dB -24.49 dB 3:32 05-Dies irae - I. Dies irae.flac
DR14 -8.61 dB -31.46 dB 3:51 09-Dies irae - V. Recordare Jesu pie.flac
DR13 -9.96 dB -28.44 dB 1:05 10-Dies irae - VI. Confutatis maledictis.flac
DR11 -35.19 dB -51.95 dB 1:35 14-Dies irae - X. Pie Jesu Domine.flac
DR14 -2.97 dB -23.14 dB 1:51 16-Offertorium - II. Sed signifer Sanctus.flac
DR10 -38.58 dB -52.69 dB 1:15 26-Libera me - V. Requiescant.flac
DR15 -8.64 dB -32.56 dB 3:00 07-Dies irae - III. Liber scriptus.flac
DR15 -2.22 dB -25.08 dB 3:00 12-Dies irae - VIII. Dies irae, dies illa.flac
DR15 -2.79 dB -23.92 dB 7:05 19-Sanctus - I. Sanctus.flac
DR16 0.00 dB -22.71 dB 8:02 22-Libera me - I. Libera me.flac
DR14 -13.49 dB -35.12 dB 2:32 06-Dies irae - II. Bugles sang.flac
DR11 -5.47 dB -26.46 dB 2:10 11-Dies irae - VII. Be slowly lifted up.flac
DR15 -10.47 dB -34.33 dB 3:34 20-Sanctus - II. After the blast of lightning.flac
DR17 -14.92 dB -38.57 dB 6:49 24-Libera me - III. None, said the other.flac
--------------------------------------------------------------------------------
Number of tracks: 26
Official DR value: DR14
Samplerate: 48000 Hz
Channels: 2
Bits per sample: 24
Bitrate: 1093 kbps
Codec: FLAC
================================================================================
[teatrix.ru].t20599.torrent 
Торрент: Зарегистрирован [ 2016-03-20 00:13 ] · B51621E1A87586ABB3CE777175B75789A62E7AE0

Скачать .torrent

Скачать

17 KB

Статус: проверено
Скачан: 1 раз
Размер: 726 MB
terms.php



Быстрый ответ

Имя:

      
Для отправки сообщений необходимо включить JavaScript
Показать сообщения:    

Текущее время: 10-Дек 06:10

Часовой пояс: UTC + 3


Вы можете начинать темы
Вы можете отвечать на сообщения
Вы не можете редактировать свои сообщения
Вы не можете удалять свои сообщения
Вы не можете голосовать в опросах
Вы не можете прикреплять файлы к сообщениям
Вы можете скачивать файлы