[TR24][OF] П.И. Чайковский: Концерты для фортепиано с оркестром №№ 1, 2 / P. Tchaikovsky: Piano Concertos Nos 1, 2 (Денис Мацуев/Denis Matsuev, Оркестр Мариинского театра/Mariinsky Orchestra, Валерий Гергиев/Valery Gergiev) - 2014 (Classical)


Статистика раздачи [Обновить пиров]
Размер:  1.42 GB   |    Зарегистрирован:  8 месяцев 21 день   |    Скачан:  1 раз

Полного источника не было: 28 дней

 
   
 
 
 

[Цитировать]

P. Tchaikovsky
Piano Concertos Nos 1 & 2
Denis Matsuev · Mariinsky Orchestra · Valery Gergiev
- Год издания: 2014
Жанр: Classical, Romantic
Издатель (лейбл): Mariinsky
Продолжительность: 01:18:32
Наличие сканов: Sleeve, Digital Booklet
- -
Pyotr Ilyich Tchaikovsky (1840-1893)
Piano concerto No. 1 in B-flat minor, Op. 23
01. I. Allegro non troppo e molto maestoso – Allegro con spirito (22:02)
02. II. Andantino semplice – Prestissimo (6:35)
03. III. Allegro con fuoco (6:50)
Piano concerto No. 2 in G major, Op. 44
04. I. Allegro brillante e molto vivace (21:21)
05. II. Andante non troppo (14:32)
06. III. Allegro con fuoco (7:12)

-
Denis Matsuev (piano)
Orchestra of the Mariinsky Theatre
Valery Gergiev (conductor)
Recording in Mariinsky Concert Hall, St. Petersburg, March & April 2013

-
Контейнер: FLAC (*.flac)
Тип рипа: tracks
Разрядность: 24bit / 96kHz
Количество каналов: 2.0
-О релизе
Since winning the 11th International Tchaikovsky Competition in 1998, Denis Matsuev has established a reputation as one of Russia's leading pianists. His debut release on the Mariinsky label received widespread acclaim. For his third release, Matsuev turns to the music of Tchaikovsky, with the Piano Concertos Nos.1 & 2. Tchaikovsky's first Piano Concerto is one of his most popular works. Tchaikovsky balances core motivic elements with a sense of lyrical spontaneity to create a technically challenging but instantly appealing work. The Piano Concerto No.2 was dedicated to pianist Nikolai Rubinstein. After a tremendous piano cadenza in the first movement, Tchaikovsky allows other instruments to shine, with prominent solos for violin and cello in the second movement.

ОтчётыДинамический диапазон

foobar2000 1.2.2 / Dynamic Range Meter 1.1.1
log date: 2015-03-12 19:30:01
--------------------------------------------------------------------------------
Analyzed: Denis Matsuev, Mariinsky Orchestra, Valery Gergiev / Tchaikovsky: Piano Concertos Nos 1 & 2
--------------------------------------------------------------------------------
DR Peak RMS Duration Track
--------------------------------------------------------------------------------
DR14 -0.25 dB -19.07 dB 22:02 ?-Piano concerto No. 1 in B-flat minor, Op. 23. I. Allegro non troppo e molto maestoso – Allegro con spirito
DR17 -4.54 dB -28.00 dB 6:35 ?-Piano concerto No. 1 in B-flat minor, Op. 23. II. Andantino semplice – Prestissimo
DR13 -0.25 dB -18.29 dB 6:50 ?-Piano concerto No. 1 in B-flat minor, Op. 23. III. Allegro con fuoco
DR13 -0.23 dB -18.22 dB 21:21 ?-Piano concerto No. 2 in G major, Op. 44. I. Allegro brillante e molto vivace
DR17 -0.25 dB -23.82 dB 14:32 ?-Piano concerto No. 2 in G major, Op. 44. II. Andante non troppo
DR14 -0.25 dB -18.34 dB 7:12 ?-Piano concerto No. 2 in G major, Op. 44. III. Allegro con fuoco
--------------------------------------------------------------------------------
Number of tracks: 6
Official DR value: DR15
Samplerate: 96000 Hz
Channels: 2
Bits per sample: 24
Bitrate: 2914 kbps
Codec: FLAC
================================================================================

Скриншот спектра частот

Доп. информация

При скачивании, если необходимо, переименуйте папку, в которой будет находиться альбомБольшая просьба к скачавшим поддерживать раздачу! Помогайте другим, ведь вам тоже может понадобиться помощь!Не забываем говорить "Спасибо"!Комментарии приветствуются!
[teatrix.ru].t20601.torrent 
Торрент: Зарегистрирован [ 2016-03-20 00:13 ] · 5DC9E88C9E6E46C04E035A798C44A28D68D001C2

Скачать .torrent

Скачать

15 KB

Статус: проверено
Скачан: 1 раз
Размер: 1.42 GB
terms.php



Быстрый ответ

Имя:

      
Для отправки сообщений необходимо включить JavaScript
Показать сообщения:    

Текущее время: 10-Дек 19:39

Часовой пояс: UTC + 3


Вы можете начинать темы
Вы можете отвечать на сообщения
Вы не можете редактировать свои сообщения
Вы не можете удалять свои сообщения
Вы не можете голосовать в опросах
Вы не можете прикреплять файлы к сообщениям
Вы можете скачивать файлы