(Classical) Swedish Romantic Songs: Berwald, Geijer, Lindblad, Soderman - Anne Sofie von Otter, Bengt Forsberg - 2012, FLAC (image+.cue) lossless


 

[Цитировать]

Swedish Romantic Songs: Berwald, Geijer, Lindblad, Söderman - Anne Sofie von Otter, Bengt Forsberg
Жанр: Classical
Страна-производитель диска: Sweden
Год издания диска: 2012
Издатель (лейбл): BIS
Номер по каталогу: BIS-SACD-1867
Дата записи: 2010
Аудиокодек: FLAC
Тип рипа: image+.cue
Битрейт аудио: lossless
Продолжительность: 74:50
Источник: собственный рип
Наличие сканов в содержимом раздачи: да
Треклист:
Adolf Fredrik Lindblad (1801–78)
[1] Aftonen
[2] Der schlummernde Amor
[3] Mån tro? Jo, jo!
[4] Svanvits sång
[5] Varning
[6] Nattviolen
[7] Frieriet
[8] På gamla dagar
[9] Vaggvisa
Erik Gustaf Geijer (1783–1847)
[10] Blomplockerskan
[11] Gräl och allt väl
[12] Min Politik
[13] Skärslipargossen
Adolf Fredrik Lindblad
[14] En sommardag
[15] Gubben vid vägen
[16] En ung flickas morgonbetraktelse
[17] Bröllopsfärden
Franz Adolf Berwald (1796–1868)
[18] Romance
[19] Lebt wohl ihr Berge
[20] Traum
[21] A votre âge
[22] En parcourant les doux climats
[23] Den 4 Juli 1844 (Konung Oscar!)
August Söderman (1832–76)
[24] Jungfrun i rosengård
[25] Jungfrun i det gröna
[26] Synden, døden
[27] Ich hab' im Traum geweinet
[28] Im wunderschönen Monat Mai
[29] Flickan i skogen
[30] Ballade
[31] Serenad
[32] Majvisa
Исполнители:
Anne Sofie von Otter mezzo-soprano
Bengt Forsberg piano
Fredrik Zetterström baritone ([7], [8])

Лог создания рипа

Exact Audio Copy V1.0 beta 3 from 29. August 2011
EAC extraction logfile from 7. March 2015, 18:10
Anne Sofie von Otter, Bengt Forsberg / A Summer's Day
Used drive : HL-DT-STDVDRAM GU70N Adapter: 0 ID: 0
Read mode : Secure
Utilize accurate stream : Yes
Defeat audio cache : Yes
Make use of C2 pointers : No
Read offset correction : 48
Overread into Lead-In and Lead-Out : No
Fill up missing offset samples with silence : Yes
Delete leading and trailing silent blocks : No
Null samples used in CRC calculations : Yes
Used interface : Native Win32 interface for Win NT & 2000
Used output format : User Defined Encoder
Selected bitrate : 128 kBit/s
Quality : High
Add ID3 tag : No
Command line compressor : C:\Program Files (x86)\Exact Audio Copy\Flac\flac.exe
Additional command line options : -V -8 -T "Date=%year%" -T "Genre=%genre%" %source%
TOC of the extracted CD
Track | Start | Length | Start sector | End sector
---------------------------------------------------------
1 | 0:00.00 | 2:13.31 | 0 | 10005
2 | 2:13.31 | 1:30.41 | 10006 | 16796
3 | 3:43.72 | 2:17.13 | 16797 | 27084
4 | 6:01.10 | 2:12.08 | 27085 | 36992
5 | 8:13.18 | 2:50.64 | 36993 | 49806
6 | 11:04.07 | 2:18.04 | 49807 | 60160
7 | 13:22.11 | 2:18.34 | 60161 | 70544
8 | 15:40.45 | 3:31.74 | 70545 | 86443
9 | 19:12.44 | 3:03.66 | 86444 | 100234
10 | 22:16.35 | 2:47.45 | 100235 | 112804
11 | 25:04.05 | 0:47.30 | 112805 | 116359
12 | 25:51.35 | 0:59.53 | 116360 | 120837
13 | 26:51.13 | 2:14.12 | 120838 | 130899
14 | 29:05.25 | 2:16.32 | 130900 | 141131
15 | 31:21.57 | 2:24.71 | 141132 | 152002
16 | 33:46.53 | 1:51.01 | 152003 | 160328
17 | 35:37.54 | 4:29.16 | 160329 | 180519
18 | 40:06.70 | 2:35.02 | 180520 | 192146
19 | 42:41.72 | 2:04.04 | 192147 | 201450
20 | 44:46.01 | 3:37.43 | 201451 | 217768
21 | 48:23.44 | 2:29.60 | 217769 | 229003
22 | 50:53.29 | 2:06.02 | 229004 | 238455
23 | 52:59.31 | 3:54.35 | 238456 | 256040
24 | 56:53.66 | 2:01.24 | 256041 | 265139
25 | 58:55.15 | 1:33.29 | 265140 | 272143
26 | 60:28.44 | 2:24.08 | 272144 | 282951
27 | 62:52.52 | 2:26.61 | 282952 | 293962
28 | 65:19.38 | 0:48.07 | 293963 | 297569
29 | 66:07.45 | 3:35.41 | 297570 | 313735
30 | 69:43.11 | 1:41.62 | 313736 | 321372
31 | 71:24.73 | 1:06.56 | 321373 | 326378
32 | 72:31.54 | 2:18.71 | 326379 | 336799
Range status and errors
Selected range
Filename C:\temp\BIS-SACD-1867 - A Summer's Day - von Otter, Forsberg\A Summer's Day.wav
Peak level 97.6 %
Extraction speed 2.3 X
Range quality 100.0 %
Test CRC 4EFF214D
Copy CRC 4EFF214D
Copy OK
No errors occurred
AccurateRip summary
Track 1 accurately ripped (confidence 2) [FA25488B] (AR v2)
Track 2 accurately ripped (confidence 2) [B5CD31FA] (AR v2)
Track 3 accurately ripped (confidence 3) [61B84653] (AR v2)
Track 4 accurately ripped (confidence 3) [A06AE332] (AR v2)
Track 5 accurately ripped (confidence 2) [D68E6613] (AR v2)
Track 6 accurately ripped (confidence 3) [8B0D855B] (AR v2)
Track 7 accurately ripped (confidence 3) [4601CC14] (AR v2)
Track 8 accurately ripped (confidence 3) [5C2291B0] (AR v2)
Track 9 accurately ripped (confidence 3) [41CC2A4A] (AR v2)
Track 10 accurately ripped (confidence 3) [3614E1AA] (AR v2)
Track 11 accurately ripped (confidence 3) [3F01171A] (AR v2)
Track 12 accurately ripped (confidence 3) [24F6D275] (AR v2)
Track 13 accurately ripped (confidence 3) [92733CEE] (AR v2)
Track 14 accurately ripped (confidence 3) [82DBFDF4] (AR v2)
Track 15 accurately ripped (confidence 3) [4595E9BA] (AR v2)
Track 16 accurately ripped (confidence 3) [BD85913D] (AR v2)
Track 17 accurately ripped (confidence 3) [F81F34B3] (AR v2)
Track 18 accurately ripped (confidence 3) [00CEAB7D] (AR v2)
Track 19 accurately ripped (confidence 3) [8FD95E7A] (AR v2)
Track 20 accurately ripped (confidence 3) [C52110CD] (AR v2)
Track 21 accurately ripped (confidence 3) [E290359F] (AR v2)
Track 22 accurately ripped (confidence 3) [3D1AAA18] (AR v2)
Track 23 accurately ripped (confidence 3) [C466DFDD] (AR v2)
Track 24 accurately ripped (confidence 3) [F6D5FE99] (AR v2)
Track 25 accurately ripped (confidence 3) [8DFEFB2A] (AR v2)
Track 26 accurately ripped (confidence 3) [AA024AA2] (AR v2)
Track 27 accurately ripped (confidence 3) [83FE4825] (AR v2)
Track 28 accurately ripped (confidence 3) [8334EE90] (AR v2)
Track 29 accurately ripped (confidence 3) [E30CEC11] (AR v2)
Track 30 accurately ripped (confidence 3) [B54ED77D] (AR v2)
Track 31 accurately ripped (confidence 3) [A8977843] (AR v2)
Track 32 accurately ripped (confidence 3) [70E0DDE2] (AR v2)
All tracks accurately ripped
End of status report
==== Log checksum FDDBB7795E063299C78996841ED6EC82B46C22E39A4576DFE8E61A1B6F8927AC ====



Показать сообщения:    

Текущее время: 18-Янв 00:23

Часовой пояс: UTC + 3


Вы не можете начинать темы
Вы не можете отвечать на сообщения
Вы не можете редактировать свои сообщения
Вы не можете удалять свои сообщения
Вы не можете голосовать в опросах
Вы не можете прикреплять файлы к сообщениям
Вы не можете скачивать файлы