Сметана - Проданная невеста (Беначкова, Петер Дворский) / Smetana - Prodana nevesta (The Bartered Bride) (Benackova, Peter Dvorsky) (Zdenek Kosler / Frantisek Filip) [1981, Opera-Film, DVDRip-AVC][Русские субтитры (Elena-Rybka)][Eng, Ger, Fre, Ces.]


 

[Цитировать]

-ЧЕШСКОЕ ТЕЛЕВИДЕНИЕ ПРЕДСТАВЛЯЕТ
БЕДРЖИХ СМЕТАНА
2 марта (March 2,) 1824 — 12 мая (May 12,) 1884
»«ПРОДАННАЯ НЕВЕСТА»«
Комическая опера в трёх действиях • Либретто Карела Сабины (1813—1877)
-- ГОД ЗАПИСИ 1981
РЕЖИССЁР ФРАНТИШЕК ФИЛИП František Filip
Язык: Чешский
Перевод: © Elena-RybkaСубтитры/Subtitles: РУССКИЕ
English, German, Français, České в составе контейнера
Продолжительность: 137 min.
•••
КРУШИНА, крестьянин Индржих ЙИНДРАК Jindřich Jindrák
МАРЖЕНКА, его дочь Габриэла БЕНАЧКОВА Gabriela Beňačková
МИХА, богатый фермер Ярослав ГОРАТСЕК Jaroslav Horacek
ВАШЕК, его сын Мирослав КОПП Miroslav Kopp
ЕНИК, сын Михи от первого брака Петер ДВОРСКИЙ Peter Dvorský
КЕЦАЛ, деревенский сват Рихард НОВАК Richard Novák
ЭСМЕРАЛЬДА, танцовщица Яна ЙОНАШОВА Jana Jonášová
ХОР и ОРКЕСТР ПРАЖСКОЙ ФИЛАРМОНИИ
ДИРИЖЁР Зденек КОШЛЕР Zdenek Kosler

•••
Качество видео: DVDRip-AVC
Исходник: DVD9 [Спасибо, Poincare!]
Формат/Контейнер: MKV
Видео поток: H.264, 684x480@540, 1610 kbps, 29,970 fps.
Аудио поток: České, AС-3 448 kbps, 48,0 KHz, 6 ch original

Скриншоты

MediaInfo

-

x264.log


avs [info]: 684x480p 8:9 @ 30000/1001 fps (cfr)
x264 [info]: using SAR=8/9
x264 [info]: using cpu capabilities: MMX2 SSE2Fast SSEMisalign LZCNT
x264 [info]: profile High, level 4.1
x264 [info]: frame I:1300 Avg QP:16.84 size: 50428
x264 [info]: frame P:68498 Avg QP:19.37 size: 16779
x264 [info]: frame B:178243 Avg QP:24.38 size: 2528
x264 [info]: consecutive B-frames: 4.6% 6.1% 15.0% 28.8% 21.6% 23.9%
x264 [info]: mb I I16..4: 2.4% 82.5% 15.1%
x264 [info]: mb P I16..4: 0.2% 8.4% 0.8% P16..4: 31.9% 34.6% 16.8% 3.0% 0.4% skip: 3.9%
x264 [info]: mb B I16..4: 0.0% 0.7% 0.0% B16..8: 35.1% 14.1% 1.4% direct: 2.7% skip:46.0% L0:28.8% L1:46.2% BI:25.0%
x264 [info]: 8x8 transform intra:88.5% inter:62.5%
x264 [info]: coded y,uvDC,uvAC intra: 95.6% 91.8% 47.2% inter: 22.1% 19.2% 1.7%
x264 [info]: i16 v,h,dc,p: 13% 7% 2% 79%
x264 [info]: i8 v,h,dc,ddl,ddr,vr,hd,vl,hu: 11% 10% 3% 9% 12% 13% 14% 14% 15%
x264 [info]: i4 v,h,dc,ddl,ddr,vr,hd,vl,hu: 12% 10% 3% 7% 14% 15% 15% 12% 13%
x264 [info]: i8c dc,h,v,p: 29% 22% 21% 28%
x264 [info]: Weighted P-Frames: Y:4.0% UV:1.4%
x264 [info]: ref P L0: 59.1% 18.3% 16.0% 2.5% 3.2% 0.8% 0.0%
x264 [info]: ref B L0: 95.1% 4.2% 0.5% 0.3%
x264 [info]: ref B L1: 98.5% 1.5%
x264 [info]: kb/s:1609.97
-
General
Unique ID : 237926802203168550923460406189068540540 (0xB2FF0908FF5004399BA8D5EC491E5A7C)
Complete name : Prodana nevesta (Benackova, Dvorsky) 1981.mkv
Format : Matroska
Format version : Version 4 / Version 2
File size : 1.99 GiB
Duration : 2h 17mn
Overall bit rate : 2 060 Kbps
Encoded date : UTC 2015-03-09 15:06:35
Writing application : mkvmerge v7.6.0 ('Garden of Dreams') 32bit built on Feb 8 2015 12:51:39
Writing library : libebml v1.3.1 + libmatroska v1.4.2
_STATISTICS_WRITING_APP : mkvmerge v7.6.0 ('Garden of Dreams') 32bit built on Feb 8 2015 12:51:39
_STATISTICS_WRITING_DATE_UTC : 2015-03-09 15:06:35
_STATISTICS_TAGS : BPS DURATION NUMBER_OF_FRAMES NUMBER_OF_BYTES
DURATION : 02:08:23.218000000
NUMBER_OF_FRAMES : 1197
NUMBER_OF_BYTES : 30458
Video
ID : 1
Format : AVC
Format/Info : Advanced Video Codec
Format profile : High@L4.1
Format settings, CABAC : Yes
Format settings, ReFrames : 5 frames
Codec ID : V_MPEG4/ISO/AVC
Duration : 2h 17mn
Bit rate : 1 571 Kbps
Width : 684 pixels
Height : 480 pixels
Display aspect ratio : 5:4
Frame rate mode : Constant
Frame rate : 29.970 fps
Color space : YUV
Chroma subsampling : 4:2:0
Bit depth : 8 bits
Scan type : Progressive
Bits/(Pixel*Frame) : 0.160
Stream size : 1.51 GiB (76%)
Writing library : x264 core 130 r2273 b3065e6
Encoding settings : cabac=1 / ref=5 / deblock=1:-3:-3 / analyse=0x3:0x133 / me=umh / subme=11 / psy=1 / psy_rd=1.05:0.10 / mixed_ref=1 / me_range=32 / chroma_me=1 / trellis=2 / 8x8dct=1 / cqm=0 / deadzone=21,11 / fast_pskip=1 / chroma_qp_offset=-3 / threads=4 / lookahead_threads=1 / sliced_threads=0 / nr=0 / decimate=1 / interlaced=0 / bluray_compat=0 / constrained_intra=0 / bframes=5 / b_pyramid=2 / b_adapt=2 / b_bias=0 / direct=1 / weightb=1 / open_gop=0 / weightp=2 / keyint=250 / keyint_min=25 / scenecut=40 / intra_refresh=0 / rc_lookahead=60 / rc=crf / mbtree=1 / crf=18.0 / qcomp=0.65 / qpmin=0 / qpmax=69 / qpstep=4 / ip_ratio=1.40 / aq=1:0.90
Language : English
Default : Yes
Forced : No
_STATISTICS_WRITING_APP : mkvmerge v7.6.0 ('Garden of Dreams') 32bit built on Feb 8 2015 12:51:39
_STATISTICS_WRITING_DATE_UTC : 2015-03-09 15:06:35
_STATISTICS_TAGS : BPS DURATION NUMBER_OF_FRAMES NUMBER_OF_BYTES
DURATION : 02:17:56.301000000
NUMBER_OF_FRAMES : 248041
NUMBER_OF_BYTES : 1665575103
Audio
ID : 2
Format : AC-3
Format/Info : Audio Coding 3
Mode extension : CM (complete main)
Format settings, Endianness : Big
Codec ID : A_AC3
Duration : 2h 17mn
Bit rate mode : Constant
Bit rate : 448 Kbps
Channel(s) : 6 channels
Channel positions : Front: L C R, Side: L R, LFE
Sampling rate : 48.0 KHz
Bit depth : 16 bits
Compression mode : Lossy
Stream size : 442 MiB (22%)
Language : Czech
Default : Yes
Forced : No
Text #1
ID : 3
Format : ASS
Codec ID : S_TEXT/ASS
Codec ID/Info : Advanced Sub Station Alpha
Compression mode : Lossless
Language : Russian
Default : Yes
Forced : No
Text #2
ID : 4
Format : UTF-8
Codec ID : S_TEXT/UTF8
Codec ID/Info : UTF-8 Plain Text
Language : English
Default : No
Forced : No
Text #3
ID : 5
Format : UTF-8
Codec ID : S_TEXT/UTF8
Codec ID/Info : UTF-8 Plain Text
Language : German
Default : No
Forced : No
Text #4
ID : 6
Format : UTF-8
Codec ID : S_TEXT/UTF8
Codec ID/Info : UTF-8 Plain Text
Language : French
Default : No
Forced : No
Text #5
ID : 7
Format : UTF-8
Codec ID : S_TEXT/UTF8
Codec ID/Info : UTF-8 Plain Text
Language : Chechen
Default : No
Forced : No



Показать сообщения:    

Текущее время: 07-Дек 21:24

Часовой пояс: UTC + 3


Вы не можете начинать темы
Вы не можете отвечать на сообщения
Вы не можете редактировать свои сообщения
Вы не можете удалять свои сообщения
Вы не можете голосовать в опросах
Вы не можете прикреплять файлы к сообщениям
Вы не можете скачивать файлы