(Baroque sacred) Marc-Antoine Charpentier - Salve Regina, Motets a voix seule et a deux voix (Judith Nelson, Rene Jacobs / William Christie, Konrad Junghanel, Concerto Vocale) - 1993, FLAC (tracks+.cue) lossless


Статистика раздачи [Обновить пиров]
Размер:  244 MB   |    Зарегистрирован:  8 месяцев 14 дней   |    Скачан:  0 раз

Полного источника не было: Никогда

 
   
 
 
 

[Цитировать]

Marc-Antoine Charpentier - Salve Regina, Motets a voix seule et a deux voix

Жанр: Baroque sacred
Страна-производитель диска: Made in Germany
Год издания диска: 1993
Издатель (лейбл): harmonia mundi s.a.
Номер по каталогу: HMA 1901149
Дата записи: 1984
Аудиокодек: FLAC
Тип рипа: tracks+.cue
Битрейт аудио: lossless
Продолжительность: 58'50
Источник: релизер
сайт-источник/ник/другое: Duckjammy and Meeting in Music blogspot
Наличие сканов в содержимом раздачи: да
Треклист:

скрытый текст

1 Alma redemptoris Mater, H. 21 3:39
2 Salve Regina, H. 27 3:37
3 O crux ave spes unica, H. 349 2:16
4 Popule meus, H. 350 2:22
5 Dialogus inter Magdalena et Jesum, H. 423 4:45
6 O vere, o bone, H. 273 3:06
7 O pretiosum, H. 245 3:27
8 O vos omnes, H. 134 5:41
9 Amicus meus, H. 127 3:22
10 Ave Regina, H. 22 3:06
11 Magdalena lugens, H. 343 10:40
12 Egredimini filiae Sion, H. 280 4:55
13 Sola vivebat in antris Magdalena lugens, H. 373 8:11
Исполнители:

скрытый текст

Marc-Antoine Charpentier (1643-1704)
Salve Regina
Motets à voix seule et à deux voix (Motets for 1 and 2 voices)
Judith Nelson - Soprano
René Jacobs - Haute Contre
Kathrin Bopp - Violin
William Christie - Organ
Trix Landolf - Violin
Jaap ter Linden - Cello
Konrad Junghanel - Theorbo
Concerto Vocale
René Jacobs - Director

Лог создания рипа

Exact Audio Copy V1.0 beta 3 from 29. August 2011
EAC extraction logfile from 23. January 2015, 23:19
Concerto Vocale / Salve Regina - Motets à voix seule & à deux voix
Used drive : hp CDDVDW TS-L633N Adapter: 1 ID: 0
Read mode : Secure
Utilize accurate stream : Yes
Defeat audio cache : Yes
Make use of C2 pointers : No
Read offset correction : 6
Overread into Lead-In and Lead-Out : No
Fill up missing offset samples with silence : Yes
Delete leading and trailing silent blocks : No
Null samples used in CRC calculations : Yes
Used interface : Native Win32 interface for Win NT & 2000
Gap handling : Appended to previous track
Used output format : User Defined Encoder
Selected bitrate : 1024 kBit/s
Quality : High
Add ID3 tag : No
Command line compressor : C:\Program Files (x86)\Exact Audio Copy\Flac\flac.exe
Additional command line options : -8 -V -T "ARTIST=%artist%" -T "TITLE=%title%" -T "ALBUM=%albumtitle%" -T "DATE=%year%" -T "TRACKNUMBER=%tracknr%" -T "GENRE=%genre%" -T "PERFORMER=%albuminterpret%" -T "COMPOSER=%composer%" %haslyrics%--tag-from-file=LYRICS="%lyricsfile%"%haslyrics% -T "ALBUMARTIST=%albumartist%" -T "DISCNUMBER=%cdnumber%" -T "TOTALDISCS=%totalcds%" -T "TOTALTRACKS=%numtracks%" -T "COMMENT=%comment%" %source% -o %dest%
TOC of the extracted CD
Track | Start | Length | Start sector | End sector
---------------------------------------------------------
1 | 0:00.33 | 3:39.67 | 33 | 16524
2 | 3:40.25 | 3:37.20 | 16525 | 32819
3 | 7:17.45 | 2:16.45 | 32820 | 43064
4 | 9:34.15 | 2:22.18 | 43065 | 53732
5 | 11:56.33 | 4:45.30 | 53733 | 75137
6 | 16:41.63 | 3:06.42 | 75138 | 89129
7 | 19:48.30 | 3:27.40 | 89130 | 104694
8 | 23:15.70 | 5:41.28 | 104695 | 130297
9 | 28:57.23 | 3:22.15 | 130298 | 145462
10 | 32:19.38 | 3:06.27 | 145463 | 159439
11 | 35:25.65 | 10:40.33 | 159440 | 207472
12 | 46:06.23 | 4:55.12 | 207473 | 229609
13 | 51:01.35 | 8:11.23 | 229610 | 266457
Track 1
Filename G:\MIMIC\CONCERTO VOCALE\Charpentier - Salve Regina - Concerto Vocale\01 Alma redemptoris mater (H 21).wav
Pre-gap length 0:00:02.33
Peak level 45.3 %
Extraction speed 1.1 X
Track quality 100.0 %
Test CRC B549940A
Copy CRC B549940A
Accurately ripped (confidence 10) [A5A84CC4] (AR v2)
Copy OK
Track 2
Filename G:\MIMIC\CONCERTO VOCALE\Charpentier - Salve Regina - Concerto Vocale\02 Salve Regina (H 27).wav
Pre-gap length 0:00:06.42
Peak level 67.1 %
Extraction speed 1.2 X
Track quality 100.0 %
Test CRC CFA02603
Copy CRC CFA02603
Accurately ripped (confidence 10) [90A3C909] (AR v2)
Copy OK
Track 3
Filename G:\MIMIC\CONCERTO VOCALE\Charpentier - Salve Regina - Concerto Vocale\03 O crux ave spes unica (H 349).wav
Pre-gap length 0:00:04.37
Peak level 34.4 %
Extraction speed 1.2 X
Track quality 100.0 %
Test CRC F2769F2B
Copy CRC F2769F2B
Accurately ripped (confidence 10) [353F6183] (AR v2)
Copy OK
Track 4
Filename G:\MIMIC\CONCERTO VOCALE\Charpentier - Salve Regina - Concerto Vocale\04 Popule meus (H 350).wav
Pre-gap length 0:00:03.57
Peak level 78.2 %
Extraction speed 1.3 X
Track quality 100.0 %
Test CRC EBAB72C0
Copy CRC EBAB72C0
Accurately ripped (confidence 10) [77C17839] (AR v2)
Copy OK
Track 5
Filename G:\MIMIC\CONCERTO VOCALE\Charpentier - Salve Regina - Concerto Vocale\05 Dialogus inter Magdalena et Jesum (H 423).wav
Pre-gap length 0:00:06.50
Peak level 54.5 %
Extraction speed 1.5 X
Track quality 100.0 %
Test CRC 27C52C16
Copy CRC 27C52C16
Accurately ripped (confidence 10) [796A3217] (AR v2)
Copy OK
Track 6
Filename G:\MIMIC\CONCERTO VOCALE\Charpentier - Salve Regina - Concerto Vocale\06 O vere, o bone (H 273).wav
Pre-gap length 0:00:07.30
Peak level 55.0 %
Extraction speed 1.3 X
Track quality 99.9 %
Test CRC E53C4F5D
Copy CRC E53C4F5D
Accurately ripped (confidence 10) [29AF829B] (AR v2)
Copy OK
Track 7
Filename G:\MIMIC\CONCERTO VOCALE\Charpentier - Salve Regina - Concerto Vocale\07 O pretiosum (H 245).wav
Pre-gap length 0:00:06.22
Peak level 98.1 %
Extraction speed 1.6 X
Track quality 100.0 %
Test CRC BD0EBA12
Copy CRC BD0EBA12
Accurately ripped (confidence 10) [4E663AA3] (AR v2)
Copy OK
Track 8
Filename G:\MIMIC\CONCERTO VOCALE\Charpentier - Salve Regina - Concerto Vocale\08 O vos omnes (H 134).wav
Pre-gap length 0:00:08.12
Peak level 46.7 %
Extraction speed 1.8 X
Track quality 100.0 %
Test CRC 0B612309
Copy CRC 0B612309
Accurately ripped (confidence 10) [54005FA2] (AR v2)
Copy OK
Track 9
Filename G:\MIMIC\CONCERTO VOCALE\Charpentier - Salve Regina - Concerto Vocale\09 Amicus meus (H 127).wav
Pre-gap length 0:00:07.40
Peak level 44.4 %
Extraction speed 1.6 X
Track quality 99.9 %
Test CRC 4DD63CD7
Copy CRC 4DD63CD7
Accurately ripped (confidence 10) [4D317D40] (AR v2)
Copy OK
Track 10
Filename G:\MIMIC\CONCERTO VOCALE\Charpentier - Salve Regina - Concerto Vocale\10 Ave Regina (H 22).wav
Pre-gap length 0:00:09.05
Peak level 56.3 %
Extraction speed 1.8 X
Track quality 100.0 %
Test CRC B5FA9FCE
Copy CRC B5FA9FCE
Accurately ripped (confidence 10) [417C4D06] (AR v2)
Copy OK
Track 11
Filename G:\MIMIC\CONCERTO VOCALE\Charpentier - Salve Regina - Concerto Vocale\11 Magdalena lugens (H 343).wav
Pre-gap length 0:00:08.07
Peak level 99.5 %
Extraction speed 2.1 X
Track quality 99.9 %
Test CRC 9EEBB969
Copy CRC 9EEBB969
Accurately ripped (confidence 10) [949FE49E] (AR v2)
Copy OK
Track 12
Filename G:\MIMIC\CONCERTO VOCALE\Charpentier - Salve Regina - Concerto Vocale\12 Egredimini filiae Sion (H 280).wav
Pre-gap length 0:00:07.40
Peak level 100.0 %
Extraction speed 2.0 X
Track quality 99.9 %
Test CRC D0703174
Copy CRC D0703174
Accurately ripped (confidence 10) [86D410B0] (AR v2)
Copy OK
Track 13
Filename G:\MIMIC\CONCERTO VOCALE\Charpentier - Salve Regina - Concerto Vocale\13 Sola vivebat in antris Magdalena lugens (H 373).wav
Pre-gap length 0:00:08.02
Peak level 89.0 %
Extraction speed 2.5 X
Track quality 100.0 %
Test CRC 78FEDB1C
Copy CRC 78FEDB1C
Accurately ripped (confidence 10) [972BB82A] (AR v2)
Copy OK
All tracks accurately ripped
No errors occurred
End of status report
==== Log checksum E3CEF0944B31862B2801B9A75E1025B23F2922D4ECDCCFDAFB0CA1CC61F585BD ====

Содержание индексной карты (.CUE)

REM GENRE Classical
REM DATE 1993
REM DISCID AF0DE00D
REM COMMENT "ExactAudioCopy v1.0b3"
PERFORMER "Concerto Vocale"
TITLE "Salve Regina - Motets а voix seule & а deux voix"
FILE "01 Alma redemptoris mater (H 21).wav" WAVE
TRACK 01 AUDIO
TITLE "Alma redemptoris mater (H 21)"
PERFORMER "Concerto Vocale"
PREGAP 00:00:33
INDEX 01 00:00:00
TRACK 02 AUDIO
TITLE "Salve Regina (H 27)"
PERFORMER "Concerto Vocale"
INDEX 00 03:33:25
FILE "02 Salve Regina (H 27).wav" WAVE
INDEX 01 00:00:00
TRACK 03 AUDIO
TITLE "O crux ave spes unica (H 349)"
PERFORMER "Concerto Vocale"
INDEX 00 03:32:58
FILE "03 O crux ave spes unica (H 349).wav" WAVE
INDEX 01 00:00:00
TRACK 04 AUDIO
TITLE "Popule meus (H 350)"
PERFORMER "Concerto Vocale"
INDEX 00 02:12:63
FILE "04 Popule meus (H 350).wav" WAVE
INDEX 01 00:00:00
TRACK 05 AUDIO
TITLE "Dialogus inter Magdalena et Jesum (H 423)"
PERFORMER "Concerto Vocale"
INDEX 00 02:15:43
FILE "05 Dialogus inter Magdalena et Jesum (H 423).wav" WAVE
INDEX 01 00:00:00
TRACK 06 AUDIO
TITLE "O vere, o bone (H 273)"
PERFORMER "Concerto Vocale"
INDEX 00 04:38:00
FILE "06 O vere, o bone (H 273).wav" WAVE
INDEX 01 00:00:00
TRACK 07 AUDIO
TITLE "O pretiosum (H 245)"
PERFORMER "Concerto Vocale"
INDEX 00 03:00:20
FILE "07 O pretiosum (H 245).wav" WAVE
INDEX 01 00:00:00
TRACK 08 AUDIO
TITLE "O vos omnes (H 134)"
PERFORMER "Concerto Vocale"
INDEX 00 03:19:28
FILE "08 O vos omnes (H 134).wav" WAVE
INDEX 01 00:00:00
TRACK 09 AUDIO
TITLE "Amicus meus (H 127)"
PERFORMER "Concerto Vocale"
INDEX 00 05:33:63
FILE "09 Amicus meus (H 127).wav" WAVE
INDEX 01 00:00:00
TRACK 10 AUDIO
TITLE "Ave Regina (H 22)"
PERFORMER "Concerto Vocale"
INDEX 00 03:13:10
FILE "10 Ave Regina (H 22).wav" WAVE
INDEX 01 00:00:00
TRACK 11 AUDIO
TITLE "Magdalena lugens (H 343)"
PERFORMER "Concerto Vocale"
INDEX 00 02:58:20
FILE "11 Magdalena lugens (H 343).wav" WAVE
INDEX 01 00:00:00
TRACK 12 AUDIO
TITLE "Egredimini filiae Sion (H 280)"
PERFORMER "Concerto Vocale"
INDEX 00 10:32:68
FILE "12 Egredimini filiae Sion (H 280).wav" WAVE
INDEX 01 00:00:00
TRACK 13 AUDIO
TITLE "Sola vivebat in antris Magdalena lugens (H 373)"
PERFORMER "Concerto Vocale"
INDEX 00 04:47:10
FILE "13 Sola vivebat in antris Magdalena lugens (H 373).wav" WAVE
INDEX 01 00:00:00
[teatrix.ru].t20605.torrent 
Торрент: Зарегистрирован [ 2016-03-20 00:15 ] · CF7E45ADA6194563A840C2A8CEA8FE76C1B1E5ED

Скачать .torrent

Скачать

21 KB

Статус: проверено
Скачан: 0 раз
Размер: 244 MB
terms.php



Быстрый ответ

Имя:

      
Для отправки сообщений необходимо включить JavaScript
Показать сообщения:    

Текущее время: 03-Дек 16:44

Часовой пояс: UTC + 3


Вы можете начинать темы
Вы можете отвечать на сообщения
Вы не можете редактировать свои сообщения
Вы не можете удалять свои сообщения
Вы не можете голосовать в опросах
Вы не можете прикреплять файлы к сообщениям
Вы можете скачивать файлы