Безумный, безумный Генрих (Владимир Бейлис, Александр Шуйский) [2010 г., трагедия, SATRip] Государственный академический Малый театр


 

[Цитировать]

Безумный, безумный Генрих Название театра: Государственный академический Малый театр.
Год выпуска: 2010.
Жанр: трагедия.
Продолжительность: 02:10:44.
Режиссеры: народный артист России Владимир Бейлис, Александр Шуйский, Владимир Крупницкий, Ахмад Умурзаков.
Действующие лица и исполнители:
Генрих IV - народный артист России Вячеслав Езепов,
Матильда Спина, маркиза - народная артистка России Ольга Пашкова,
Фрида, ее дочь - Александра Иванова,
Карло ди Нолли, молодой маркиз - Степан Коршунов,
Тито Белькреди, барон - заслуженный артист России Виталий Петров,
Дионизио Дженони, доктор - заслуженный артист России Сергей Вещев,
Ландольфо (Лоло) - Oлег Доброван,
Ариальдо (Франко) - заслуженный артист России Василий Дахненко,
Ордульфо (Момо) - Денис Курочка,
Бертольдо (Фино) - Дмитрий Марин,
Джованни, камердинер - заслуженный артист России Aлександр Вахтеров.
Описание:
Пьеса знаменитого итальянского драматурга Луиджи Пиранделло посвящена интеллигентному безумцу, который после подстроенного несчастного случая возомнил себя средневековым германским императором. Но маска, если носить ее не снимая, имеет свойство прирастать к лицу. Даже вылечившись, наш герой не желает жить в своем времени и играет в собственное слабоумие: симуляция – его путь к свободе среди безумного мира. Но, как известно, от тюрьмы и сумы не зарекайся. Прошлое настигает, когда Генрих из мести убивает соперника в любви, виновника своих страданий. И только безумие может спасти убийцу от наказания…
Дополнительная информация:
Страна: Россия .
Выпущено: © ООО "Киноцент 2К".
Автор: Луиджи Пиранделло.
Перевод Галины Рубцовой.
Режиссер-постановщик спектакля: народный артист РСФСР Владимир Бейлис.
Художник-постановщик: народный художник России Эдуард Кочергин.
Композитор: народный артист России Григорий Гоберник.
Режиссер: Александр Шуйский.
Художник по костюмам: Анна Алексеева.
Художник по свету: Елена Древалева.
Художественный руководитель театра: народный артист СССР Юрий Соломин.
Прeмьера спектакля: 5 декабря 2008 года.
Режиссеры телеверсии: Владимир Крупницкий, Ахмад Умурзаков.
Операторы: М. Лагин, О. Кузнецов, Ахмад Умурзаков, Александр Харитонов, Эдуард Овечко, Андрей Еременко, Пётр Федоров, А. Терехов, Михаил Килим.

О спектакле.
Релиз

Качество: SATRip
Формат: AVI
Видео: 640x352 (1.82:1), 25 fps, XviD MPEG-4 ~1360 kbps avg, 0.24 bit/pixel
Аудио: 44.100 kHz, MPEG Layer 3, 2 ch, ~128.00 kbps avg

Отчет Media Info

General
Complete name : Bezumnyj.bezumnyj.Genrih_Malyj.teatr.2010.XviD.TVRip.fenixclub.avi
Format : AVI
Format/Info : Audio Video Interleave
File size : 1.37 GiB
Duration : 2h 10mn
Overall bit rate : 1 499 Kbps
Writing application : VirtualDubModRus 1.5.10.2 (build 2542/release)
Writing library : VirtualDub build 32842/release
Video
ID : 0
Format : MPEG-4 Visual
Format profile : Advanced Simple@L5
Format settings, BVOP : 2
Format settings, QPel : No
Format settings, GMC : No warppoints
Format settings, Matrix : Default (H.263)
Muxing mode : Packed bitstream
Codec ID : XVID
Codec ID/Hint : XviD
Duration : 2h 10mn
Bit rate : 1 361 Kbps
Width : 640 pixels
Height : 352 pixels
Display aspect ratio : 16:9
Frame rate : 25.000 fps
Color space : YUV
Chroma subsampling : 4:2:0
Bit depth : 8 bits
Scan type : Progressive
Compression mode : Lossy
Bits/(Pixel*Frame) : 0.242
Stream size : 1.24 GiB (91%)
Writing library : XviD 73
Audio
ID : 1
Format : MPEG Audio
Format version : Version 1
Format profile : Layer 3
Mode : Joint stereo
Mode extension : MS Stereo
Codec ID : 55
Codec ID/Hint : MP3
Duration : 2h 10mn
Bit rate mode : Constant
Bit rate : 128 Kbps
Channel(s) : 2 channels
Sampling rate : 44.1 KHz
Compression mode : Lossy
Stream size : 120 MiB (9%)
Alignment : Split accross interleaves
Interleave, duration : 40 ms (1.00 video frame)
Interleave, preload duratio : 500 ms
Writing library : LAME3.98.2

Скриншоты


Альтернативный хост





Показать сообщения:    

Текущее время: 03-Дек 09:49

Часовой пояс: UTC + 3


Вы не можете начинать темы
Вы не можете отвечать на сообщения
Вы не можете редактировать свои сообщения
Вы не можете удалять свои сообщения
Вы не можете голосовать в опросах
Вы не можете прикреплять файлы к сообщениям
Вы не можете скачивать файлы