Искусство боя / The Art of Action: Martial Arts in Motion Picture (Кит Р. Кларк / Keith R. Clarke) [2002, документальный, VHSRip]


Статистика раздачи [Обновить пиров]
Размер:  1.37 GB   |    Зарегистрирован:  8 месяцев 21 день   |    Скачан:  0 раз

Полного источника не было: Никогда

 
   
 
 
 

[Цитировать]

Искусство боя / The Art of Action: Martial Arts in Motion Picture
Дата/Год выпуска: 2002
Страна: США
Жанр: документальный
Продолжительность: 01:32:20
Перевод: Профессиональный (многоголосый закадровый)
Доп. инфо о переводе: Видеосервис
Русские субтитры: нет
Оригинальная аудиодорожка: нет
Режиссер: Кит Р. Кларк / Keith R. Clarke
Описание: Джеки Чан, Дэвид Кэррадайн, Pei-pei Cheng, Рэймонд Чоу, Том Круз, Саммо Хунг Кам-Бо, Сэмюэл Л. Джексон, Энг Ли, Брюс Ли, Джа Хуи Лью
Боевые искусства Востока — танго для врагов, смертельно опасный танец, в котором оживает героический дух древних воинов. Долгое время их магия скрывалась за стенами Шаолиньских монастырей, но волшебство другого рода — кино — подарило миру не только сокровенную тайну, но и уникальное зрелище.
Доп. информация: Оцифровка VHS (личный архив) и получение VHSRip alenavova
Эксклюзив для rutracker.org. При размещении данного релиза на других сайтах ссылка на автора alenavova обязательна.

Релиз-первоисточник
Сэмпл: https://yadi.sk/i/jrgcQN6SfDfGc
качество: VHSRip
формат: AVI
Видео: 640x480 (1.33:1), 25 fps, XviD build 50 ~1918 kbps avg, 0.25 bit/pixel
Аудио: 48 kHz, AC3 Dolby Digital, 2/0 (L,R) ch, ~192 kbps

MediaInfo

Искусство боя (by alenavova).avi
Format : AVI
Format/Info : Audio Video Interleave
File size : 1.37 GiB
Duration : 1h 32mn
Overall bit rate : 2 120 Kbps
Movie name : Искусство боя (by alenavova)
Director : by alenavova
Writing application : VirtualDubMod 1.5.10.3 | www.virtualdub-fr.org || (build 2550/release)
Copyright : Edich2
Comment : RuTracker.org
Video
ID : 0
Format : MPEG-4 Visual
Format profile : Advanced Simple@L5
Format settings, BVOP : 1
Format settings, QPel : No
Format settings, GMC : No warppoints
Format settings, Matrix : Default (MPEG)
Codec ID : XVID
Codec ID/Hint : XviD
Duration : 1h 32mn
Bit rate : 1 919 Kbps
Width : 640 pixels
Height : 480 pixels
Display aspect ratio : 4:3
Frame rate : 25.000 fps
Color space : YUV
Chroma subsampling : 4:2:0
Bit depth : 8 bits
Scan type : Progressive
Compression mode : Lossy
Bits/(Pixel*Frame) : 0.250
Stream size : 1.24 GiB (90%)
Writing library : XviD 1.2.1 (UTC 2008-12-04)
Audio
ID : 1
Format : AC-3
Format/Info : Audio Coding 3
Mode extension : CM (complete main)
Format settings, Endianness : Big
Codec ID : 2000
Duration : 1h 32mn
Bit rate mode : Constant
Bit rate : 192 Kbps
Channel(s) : 2 channels
Channel positions : Front: L R
Sampling rate : 48.0 KHz
Bit depth : 16 bits
Compression mode : Lossy
Stream size : 127 MiB (9%)
Alignment : Split accross interleaves
Interleave, duration : 40 ms (1.00 video frame)
Interleave, preload duration : 500 ms

Скриншоты


[teatrix.ru].t20608.torrent 
Торрент: Зарегистрирован [ 2016-03-20 00:15 ] · 74C17B70EB8451DAE4162406BFB0B140DD32BDEA

Скачать .torrent

Скачать

14 KB

Статус: проверено
Скачан: 0 раз
Размер: 1.37 GB
terms.php



Показать сообщения:    

Текущее время: 10-Дек 02:17

Часовой пояс: UTC + 3


Вы не можете начинать темы
Вы не можете отвечать на сообщения
Вы не можете редактировать свои сообщения
Вы не можете удалять свои сообщения
Вы не можете голосовать в опросах
Вы не можете прикреплять файлы к сообщениям
Вы можете скачивать файлы