Трагедия о власти (Валерий Шевцов) [2000 г., Украина, сценическая притча, WEB-DLRip] Молодежный эмоциональный театр Луганска "МЭТЛУГ" и Луганский областной русский драматический театр


 

[Цитировать]

Трагедия о власти Название театра: Молодежный эмоциональный театр Луганска "МЭТЛУГ" и Луганский областной русский драматический театр.
Год выпуска: 2000.
Страна: Украина .
Жанр: сценическая притча.
Продолжительность: 01:25:05.
Язык: русский.
Режиссеры: Валерий Шевцов.
В ролях: актеры МЭТЛУГ и Луганского ОРДТ.
О спектакле:
Совместный проект Молодежного эмоционального театра Луганска "МЭТЛУГ" с Луганским областным русским драматическим театром.
Спектакль поставил в 1999 г. режиссер и художественный руководитель МЭТЛУГа Валерий Шевцов по инициативе ведущих актеров луганского областного драмтеатра и был посвящен 75-летию нар. артиста Украины Павла Кленова и 55-летию его творческой деятельности.
Постановка получила высокую оценку киевских театроведов и шекспироведов, приехавших на премьеру. Сценическая жизнь спектакля волею тогдашнего руководства театра оказалась весьма короткой (до 2001г.), но еще на протяжении 8 лет спектакль регулярно демонстрировался на экранах областного телевидения, вплоть до смерти зам. генерального директора ЛОГТРК заслуженного работника культуры Юрия Казакова (светлая ему память).

Дополнительная информация:
Выпущено: © Луганская областная государственная телерадиокомпания.
Автор: Уильям Шекспир.
Художник-постановщик: Александр Шамрай.
Музыка: Альфреда Шнитке "Симфония №2", Петра Ильича Чайковского "Спящая красавица".
Релиз
Рип sharky.

Качество видео:...WEB-DLRip
Формат:.................AVI
Видео:..704x528 (1.33:1), 25 fps, XviD build 47 ~1694 kbps avg, 0.18 bit/pixel
Аудио:..44.100 kHz, MPEG Layer 3, 2 ch, ~128.00 kbps avg

Отчет MediaInfo

Общее
Полное имя : Tragediya.vlasti_METLUG.i.Luganskij.ORDT.2000.XviD.WEB-DLRip.fenixclub.avi
Format : AVI
Format/Info : Audio Video Interleave
File size : 1.09 GiB
Duration : 1h 25mn
Overall bit rate : 1 832 Kbps
Writing application : VirtualDubMod 1.5.10.2 (build 2540/release)
Writing library : VirtualDubMod build 2540/release
Video
ID : 0
Format : MPEG-4 Visual
Format profile : Advanced Simple@L5
Format settings, BVOP : 1
Format settings, QPel : No
Format settings, GMC : No warppoints
Format settings, Matrix : Default (H.263)
Codec ID : XVID
Codec ID/Hint : XviD
Duration : 1h 25mn
Bit rate : 1 695 Kbps
Width : 704 pixels
Height : 528 pixels
Display aspect ratio : 4:3
Frame rate : 25.000 fps
Color space : YUV
Chroma subsampling : 4:2:0
Bit depth : 8 bits
Scan type : Progressive
Compression mode : Lossy
Bits/(Pixel*Frame) : 0.182
Stream size : 1.01 GiB (92%)
Writing library : XviD 1.2.0.dev47 (UTC 2006-11-01)
Audio
ID : 1
Format : MPEG Audio
Format version : Version 1
Format profile : Layer 3
Codec ID : 55
Codec ID/Hint : MP3
Duration : 1h 25mn
Bit rate mode : Constant
Bit rate : 128 Kbps
Channel(s) : 2 channels
Sampling rate : 44.1 KHz
Compression mode : Lossy
Stream size : 77.9 MiB (7%)
Alignment : Split accross interleaves
Interleave, duration : 40 ms (1.00 video frame)
Interleave, preload duratio : 500 ms
Writing library : LAME3.97
Encoding settings : -m s -V 4 -q 2 -lowpass 17 -b 128

Скриншоты


Альтернативный хост





Показать сообщения:    

Текущее время: 05-Дек 03:29

Часовой пояс: UTC + 3


Вы не можете начинать темы
Вы не можете отвечать на сообщения
Вы не можете редактировать свои сообщения
Вы не можете удалять свои сообщения
Вы не можете голосовать в опросах
Вы не можете прикреплять файлы к сообщениям
Вы не можете скачивать файлы