Жорж Бизе - Кармен (Австралийская опера, Гейл Эдвардс, Брайан Кастлс-Онион) / Georges Bizet - Carmen (Australian Opera, Gale Edwards, Brian Castles-Onion) [2013, Opera, BDRip 720p]


 

[Цитировать]

Жорж Бизе - Кармен (Австралийская опера) / Georges Bizet - Carmen (Australian Opera)
Год выпуска: 2013
Лейбл: Opera Australia
Страна-производитель: США, Австралия
Жанр: Opera
Продолжительность: 02:21:24
Язык: Французский
Режиссер: Gale Edwards (Гейл Эдвардс)
Дирижер: Brian Castles-Onion (Брайан Кастлс-Онион)
Исполнители:
Rinat Shaham (Ринат Шахам) - Carmen,
Dmytro Popov (Дмитро Попов) - Don Jose,
Andrew Jones (Эндрью Джонс) - Escamillo,
Nicole Car (Николь Кар) - Micaëla,
Ariya Sawadivong (Ария Савадивонг) - Frasquita,
Tania Ferris (Таня Феррис) - Mercédès,
Sam Roberts-Smith (Сэм Робертс-Смит) - Remendado,
Luke Gabbedy (Люк Габбеди) - Dancairo,
Adrian Tamburini (Адриан Тамбурини) - Zuniga,
Samuel Dundas (Самьюэл Дандас) - Moralès
Opera Australia Chorus, Australian Opera and Ballet Orchestra (хор и оркестр Австралийской оперы)
Описание: Кармен, работница табачной фабрики участвует в драке на ножах с другой работницей. Ее арестовывают, но она увлекает солдата Хозе и бежит. Он становится ее возлюбленным и контрабандистом, однако, Кармен не любит бедного Хозе и он пытается вернуть ее любовь. «Кармен» — подлинный шедевр оперного искусства. Музыка, полная жизни и света, воспевает свободу человеческой личности. Глубоко правдив драматизм столкновений и конфликтов. Герои обрисованы сочно, темпераментно, во всей психологической сложности. Если в характеристике Хозе господствует стихия песни-романса, подчёркивающая его душевную мягкость, то непокорный дух Кармен раскрывается в темпераментных ритмах и напевах испанских народных песен.
Либретто

Оригинально описание

Carmen, a tempestuous opera written by Georges Bizet, is set in the city of Seville, Spain. Carmen is sexy and capricious, and freely taunts the soldiers around her saying she will love or discard whom she chooses just as she pleases. But, after attacking another woman at the cigarette factory with a knife Carmen has to use her seductive skills on her guard, Don Jose, to escape going to prison. Passion between Don Jose and Carmen, and Escamillo, a celebrated toreador who is infatuated with her, leads to jealousy, violence and death. Rinat Shaham with her sublime singing dominates the bull-fighting arena as the provocative and alluring Carmen, while Dmytro Popov portrays Don Jose with a perfect mix of naivety and mad desire, his rich tenor rolling out across the bay. Andrew Jones gives a strong dramatic presence as Escamillo, and Nicole Car, one of Australia's best young operatic voices, is the sweet Micaela. With the Australian Opera and Ballet Orchestra and conductor Brian Castles-Onion, a gritty set design, sumptuous bold costumes, stunning choreography, and the inestimable direction of Gale Edwards and Bizet's glorious opera is brought to life like never before in this second Handa Opera on Sydney Harbour.
Recorded live from on Sydney Harbour, Mrs Macquaries Point, Royal Botanic Gardens, 2 and 4 April 2013.
Качество видео: BDRip
Формат/Контейнер: MKV
Видео кодек: H.264
Аудио кодек: AC3
Видео поток: H.264, 1280x720, 5905 kbps, 29.970 fps
Аудио поток: AC3, 448 kbps, 48 kHz, 6 ch. AC3, 448 kbps, 48 kHz, 2 ch

MediaInfo

Общее
Уникальный идентификатор : 240116794997503826102913293244167449411 (0xB4A4D0042B00FC768074839043756B43)
Полное имя : D:\Фильмы DVD и HD\Бизе - Кармен (Australian Opera) (2013) (BDRip 720p, AC3 5.1).mkv
Формат : Matroska
Версия формата : Version 4 / Version 2
Размер файла : 6,85 Гбайт
Продолжительность : 2 ч. 21 м.
Режим общего битрейта : Переменный
Общий поток : 6940 Кбит/сек
Дата кодирования : UTC 2015-03-07 16:19:26
Программа кодирования : mkvmerge v7.7.0 ('Six Voices') 64bit built on Feb 28 2015 23:39:33
Библиотека кодирования : libebml v1.3.1 + libmatroska v1.4.2
DURATION : 02:21:25.024000000
NUMBER_OF_FRAMES : 265157
NUMBER_OF_BYTES : 475161344
_STATISTICS_WRITING_APP : mkvmerge v7.7.0 ('Six Voices') 64bit built on Feb 28 2015 23:39:33
_STATISTICS_WRITING_DATE_UTC : 2015-03-07 16:19:26
_STATISTICS_TAGS : BPS DURATION NUMBER_OF_FRAMES NUMBER_OF_BYTES
Видео
Идентификатор : 1
Формат : AVC
Формат/Информация : Advanced Video Codec
Профиль формата : High@L4.1
Параметр CABAC формата : Да
Параметр ReFrames формата : 3 кадра
Идентификатор кодека : V_MPEG4/ISO/AVC
Продолжительность : 2 ч. 21 м.
Вид битрейта : Переменный
Битрейт : 5905 Кбит/сек
Максимальный битрейт : 8000 Кбит/сек
Ширина : 1280 пикселей
Высота : 720 пикселей
Соотношение сторон : 16:9
Режим частоты кадров : Постоянный
Частота кадров : 29,970 кадров/сек
Стандарт вещания : NTSC
Цветовое пространство : YUV
Субдискретизация насыщенности : 4:2:0
Битовая глубина : 8 бит
Тип развёртки : Чересстрочная
Порядок развёртки : Верхнее поле первое
Бит/(Пиксели*Кадры) : 0.214
Размер потока : 5,83 Гбайт (85%)
Язык : English
Default : Да
Forced : Нет
Основные цвета : BT.709
Характеристики трансфера : BT.709
Коэффициенты матрицы : BT.709
colour_range : Limited
Аудио #1
Идентификатор : 2
Формат : AC-3
Формат/Информация : Audio Coding 3
Расширение режима : CM (complete main)
Параметр Endianness формата : Big
Идентификатор кодека : A_AC3
Продолжительность : 2 ч. 21 м.
Вид битрейта : Постоянный
Битрейт : 448 Кбит/сек
Каналы : 6 каналов
Расположение каналов : Front: L C R, Side: L R, LFE
Частота : 48,0 КГц
Битовая глубина : 16 бит
Метод сжатия : С потерями
Размер потока : 453 Мбайт (6%)
Заголовок : AC3 5.1
Язык : French
Default : Да
Forced : Нет
Аудио #2
Идентификатор : 3
Формат : AC-3
Формат/Информация : Audio Coding 3
Расширение режима : CM (complete main)
Параметр Endianness формата : Big
Идентификатор кодека : A_AC3
Продолжительность : 2 ч. 21 м.
Вид битрейта : Постоянный
Битрейт : 448 Кбит/сек
Каналы : 2 канала
Расположение каналов : Front: L R
Частота : 48,0 КГц
Битовая глубина : 16 бит
Метод сжатия : С потерями
Размер потока : 453 Мбайт (6%)
Заголовок : AC3 2.0
Язык : French
Default : Нет
Forced : Нет

Скриншоты


Blu-ray



Показать сообщения:    

Текущее время: 10-Дек 17:48

Часовой пояс: UTC + 3


Вы не можете начинать темы
Вы не можете отвечать на сообщения
Вы не можете редактировать свои сообщения
Вы не можете удалять свои сообщения
Вы не можете голосовать в опросах
Вы не можете прикреплять файлы к сообщениям
Вы не можете скачивать файлы