Рихард Вагнер - Тангейзер (Большой театр Лисеу; Роберт Карсен, Хави Бове; Себастьян Вайгл) / Richard Wagner - Tannhauser (Gran Teatre del Liceu; Robert Carsen, Xavi Bove; Sebastian Weigle) [2008, Opera, BDRip 720p]


 

[Цитировать]

Рихард Вагнер - Тангейзер / Richard Wagner - Tannhauser
Год выпуска: 2008
Лейбл: C MAJOR, Liceu opera Barcelona, Unitel Classica
Страна-производитель: США
Жанр: Opera
Продолжительность: 03:21:49
Язык: Немецкий
Субтитры: Нет
Режиссеры: Robert Carsen (Роберт Карсен), Xavi Bové (Хави Бове)
Дирижер: Sebastian Weigle (Себастьян Вайгл)
Исполнители:
Peter Seiffert (Петер Зейферт (Зайферт)) - Tannhäuser,
Petra Maria Schnitzer (Петра Мария Шнитцер) - Elisabeth,
Béatrice Uria-Monzon (Беатрис Урия-Монзон) - Venus,
Günther Groissböck (Гюнтер Гройссбек) - Hermann,
Markus Eiche (Маркус Айхе) - Wolfram
Symphony Orchestra and Chorus of Gran Teatre del Liceu (Симфонический оркестр и хор Большого театра Лисеу Барселоны)
Описание: Опера в трех действиях Рихарда Вагнера на либретто (по-немецки) композитора, основанное на легенде, рассказанной в средневековой немецкой саге «Состязание певцов».
«Тангейзер» удостоился, что весьма интересно, как восторженных похвал, так и крайне резкого порицания со стороны критиков самых разных направлений. Эдуард Ганслик, например, этот наиболее влиятельный венский музыкальный критик, навлек на себя вечный позор в сердцах тысяч истинных вагнерианцев острой и уничтожающей критикой их кумира — критикой, которую они не желали даже читать. Вот что вынужден был написать этот злейший враг Вагнера о «Тангейзере» после премьеры оперы: «Я твердо убежден, что это лучшее, чего удалось достичь в большой опере за последние двадцать лет... Рихард Вагнер, я уверен, величайший драматический талант среди всех современных композиторов».
Это изрекли уста человека, которого меньше всего можно назвать поклонником Вагнера. Но первый из них, то есть, как вы можете догадаться, сам Вагнер, с этой оценкой абсолютно не согласен и придерживается прямо противоположного мнения: «Meine schlechteste Oper» («Моя худшая опера»). Так сам композитор оценивал «Тангейзера» в конце своей жизни.
Критики, не столь высокого ранга, как Ганслик и Вагнер, также высказывали диаметрально противоположные мнения об опере. Когда «Тангейзер» впервые ставился в Париже, Вагнер с радостью (и блеском) написал для него балетную сцену (две пантомимы на темы античных мифов), поскольку наличие балета было sine qua non (лат. — непременное условие) оперных спектаклей в эпоху правления императора Наполеона III. К сожалению, единственным подходящим местом для введения балета была первая сцена. Но с точки зрения молодых парижских денди из Жокейского клуба, патронировавших парижскую «Гранд-опера», этот балет шел слишком рано — в это время они еще не являлись в театр и потому не успевали увидеть самое для них привлекательное — молоденьких балерин, которых они обожали. Рассерженные таким положением дел, эти веселые парни организовали своего рода молодежный протест: на втором и третьем спектаклях их выходки были столь безобразны, что Вагнер забрал свое произведение. (В русской театральной практике парижская редакция «Тангейзера» не закрепилась).

Оригинальное описание

This exciting modern-day adaptation of Tannhauser, Richard Wagner's fable of love and redemption, features one of the great Wagner singers of our time in the lead role, Peter Seiffert. Using the magnificent space of Barcelona's Gran Teatre del Liceu in its entirety, renowned Canadian director Robert Carsen has transformed this mythic narration of medieval troubadours into a compelling and at times very amusing tale that plays out in a world of contemporary painters and art dealer. Thus, the work's original message of salvation takes on a new edge: it is now about artistic glory and expressing the inexpressible. "Heldentenor Peter Seiffert ruled the stage" (Opera News).
Recorded at the Gran Teatre del Liceu, 2008.
Либретто
Качество видео: BDRip
Формат/Контейнер: MKV
Видео кодек: H.264
Аудио кодек: AC3
Видео поток: H.264, 1280x720, 6038 kbps, 29.970 fps
Аудио поток: AC3, 448 kbps, 48 kHz, 5.1 ch. AC3, 448 kbps, 48 kHz, 2 ch

MediaInfo

Общее
Уникальный идентификатор : 240863942031261645623920206442824341419 (0xB534B53588BBF4FCB8D59CF3630E17AB)
Полное имя : D:\Фильмы DVD и HD\Вагнер - Тангейзер (Teatre del Liceu) (2008) (BDRip 720p, AC3 5.1).mkv
Формат : Matroska
Версия формата : Version 4 / Version 2
Размер файла : 9,96 Гбайт
Продолжительность : 3 ч. 21 м.
Режим общего битрейта : Переменный
Общий поток : 7075 Кбит/сек
Дата кодирования : UTC 2015-03-02 11:45:22
Программа кодирования : mkvmerge v7.6.0 ('Garden of Dreams') 64bit built on Feb 8 2015 13:04:34
Библиотека кодирования : libebml v1.3.1 + libmatroska v1.4.2
DURATION : 03:21:30.976000000
NUMBER_OF_FRAMES : 377843
NUMBER_OF_BYTES : 677094656
_STATISTICS_WRITING_APP : mkvmerge v7.6.0 ('Garden of Dreams') 64bit built on Feb 8 2015 13:04:34
_STATISTICS_WRITING_DATE_UTC : 2015-03-02 11:45:22
_STATISTICS_TAGS : BPS DURATION NUMBER_OF_FRAMES NUMBER_OF_BYTES
Видео
Идентификатор : 1
Формат : AVC
Формат/Информация : Advanced Video Codec
Профиль формата : Main@L4.1
Параметр CABAC формата : Да
Параметр ReFrames формата : 3 кадра
Идентификатор кодека : V_MPEG4/ISO/AVC
Продолжительность : 3 ч. 21 м.
Вид битрейта : Переменный
Битрейт : 6038 Кбит/сек
Максимальный битрейт : 8000 Кбит/сек
Ширина : 1280 пикселей
Высота : 720 пикселей
Соотношение сторон : 16:9
Режим частоты кадров : Постоянный
Частота кадров : 29,970 кадров/сек
Стандарт вещания : NTSC
Цветовое пространство : YUV
Субдискретизация насыщенности : 4:2:0
Битовая глубина : 8 бит
Тип развёртки : Прогрессивная
Бит/(Пиксели*Кадры) : 0.219
Размер потока : 8,50 Гбайт (85%)
Язык : English
Default : Да
Forced : Нет
colour_range : Limited
Аудио #1
Идентификатор : 2
Формат : AC-3
Формат/Информация : Audio Coding 3
Расширение режима : CM (complete main)
Параметр Endianness формата : Big
Идентификатор кодека : A_AC3
Продолжительность : 3 ч. 21 м.
Вид битрейта : Постоянный
Битрейт : 448 Кбит/сек
Каналы : 6 каналов
Расположение каналов : Front: L C R, Side: L R, LFE
Частота : 48,0 КГц
Битовая глубина : 16 бит
Метод сжатия : С потерями
Размер потока : 646 Мбайт (6%)
Заголовок : AC3 5.1
Язык : German
Default : Да
Forced : Нет
Аудио #2
Идентификатор : 3
Формат : AC-3
Формат/Информация : Audio Coding 3
Расширение режима : CM (complete main)
Параметр Endianness формата : Big
Идентификатор кодека : A_AC3
Продолжительность : 3 ч. 21 м.
Вид битрейта : Постоянный
Битрейт : 448 Кбит/сек
Каналы : 2 канала
Расположение каналов : Front: L R
Частота : 48,0 КГц
Битовая глубина : 16 бит
Метод сжатия : С потерями
Размер потока : 646 Мбайт (6%)
Заголовок : AC3 2.0
Язык : German
Default : Нет
Forced : Нет

Скриншоты


Blu-ray



Показать сообщения:    

Текущее время: 09-Дек 20:30

Часовой пояс: UTC + 3


Вы не можете начинать темы
Вы не можете отвечать на сообщения
Вы не можете редактировать свои сообщения
Вы не можете удалять свои сообщения
Вы не можете голосовать в опросах
Вы не можете прикреплять файлы к сообщениям
Вы не можете скачивать файлы