(Classical) Georg Philipp Telemann - Ouvertures pittoresques - Arte dei Suonatori, Martin Gester - 2012, FLAC (image+.cue) lossless


 

[Цитировать]

Georg Philipp Telemann - Ouvertures pittoresques - Arte dei Suonatori, Martin Gester
Жанр: Classical
Страна-производитель диска: Sweden
Год издания диска: 2012
Издатель (лейбл): BIS
Номер по каталогу: BIS-SACD-1979
Дата записи: 2012
Аудиокодек: FLAC
Тип рипа: image+.cue
Битрейт аудио: lossless
Продолжительность: 77:12
Источник: собственный рип
Наличие сканов в содержимом раздачи: да
Треклист:
Georg Philipp Telemann (1681–1767)
[1]-[8] Ouverture in D major, TWV 55:D15
for three oboes, strings and basso continuo
[9]-[16] Ouverture in B flat major, TWV 55:B5 (‘Völker-Ouvertüre’)
for strings and basso continuo
[17]-[20] Concerto polonois in B flat major, TWV 43:B3
for strings and basso continuo
[21]-[24] Concerto polonois in G major, TWV 43:G7
for strings and basso continuo
[25]-[31] Ouverture, jointes d’une Suite tragi-comique in D major, TWV 55:D22
for three trumpets, timpani, strings and basso continuo
Исполнители:
Arte dei Suonatori
directed by Martin Gester

Лог создания рипа

Exact Audio Copy V1.0 beta 3 from 29. August 2011
EAC extraction logfile from 7. March 2015, 22:02
Arte dei Suonatori, Martin Gester / Telemann - Ouvertures pittoresques
Used drive : HL-DT-STDVDRAM GU70N Adapter: 0 ID: 0
Read mode : Secure
Utilize accurate stream : Yes
Defeat audio cache : Yes
Make use of C2 pointers : No
Read offset correction : 48
Overread into Lead-In and Lead-Out : No
Fill up missing offset samples with silence : Yes
Delete leading and trailing silent blocks : No
Null samples used in CRC calculations : Yes
Used interface : Native Win32 interface for Win NT & 2000
Used output format : User Defined Encoder
Selected bitrate : 128 kBit/s
Quality : High
Add ID3 tag : No
Command line compressor : C:\Program Files (x86)\Exact Audio Copy\Flac\flac.exe
Additional command line options : -V -8 -T "Date=%year%" -T "Genre=%genre%" %source%
TOC of the extracted CD
Track | Start | Length | Start sector | End sector
---------------------------------------------------------
1 | 0:00.00 | 6:43.00 | 0 | 30224
2 | 6:43.00 | 1:04.74 | 30225 | 35098
3 | 7:47.74 | 2:39.19 | 35099 | 47042
4 | 10:27.18 | 3:09.24 | 47043 | 61241
5 | 13:36.42 | 2:35.25 | 61242 | 72891
6 | 16:11.67 | 2:42.11 | 72892 | 85052
7 | 18:54.03 | 1:18.39 | 85053 | 90941
8 | 20:12.42 | 2:47.33 | 90942 | 103499
9 | 23:00.00 | 6:33.61 | 103500 | 133035
10 | 29:33.61 | 3:33.62 | 133036 | 149072
11 | 33:07.48 | 2:25.23 | 149073 | 159970
12 | 35:32.71 | 1:46.14 | 159971 | 167934
13 | 37:19.10 | 1:34.65 | 167935 | 175049
14 | 38:54.00 | 2:28.03 | 175050 | 186152
15 | 41:22.03 | 1:26.67 | 186153 | 192669
16 | 42:48.70 | 2:22.05 | 192670 | 203324
17 | 45:11.00 | 2:09.20 | 203325 | 213019
18 | 47:20.20 | 3:29.25 | 213020 | 228719
19 | 50:49.45 | 2:15.54 | 228720 | 238898
20 | 53:05.24 | 1:06.51 | 238899 | 243899
21 | 54:12.00 | 2:02.02 | 243900 | 253051
22 | 56:14.02 | 2:13.06 | 253052 | 263032
23 | 58:27.08 | 2:11.59 | 263033 | 272916
24 | 60:38.67 | 1:57.08 | 272917 | 281699
25 | 62:36.00 | 4:50.00 | 281700 | 303449
26 | 67:26.00 | 2:09.62 | 303450 | 313186
27 | 69:35.62 | 0:59.47 | 313187 | 317658
28 | 70:35.34 | 2:19.09 | 317659 | 328092
29 | 72:54.43 | 1:06.43 | 328093 | 333085
30 | 74:01.11 | 1:42.48 | 333086 | 340783
31 | 75:43.59 | 1:28.16 | 340784 | 347399
Range status and errors
Selected range
Filename C:\temp\BIS-SACD-1979 - Telemann - Ouvertures pittoresques\Telemann - Ouvertures pittoresques.wav
Peak level 96.2 %
Extraction speed 2.3 X
Range quality 100.0 %
Test CRC F422EF91
Copy CRC F422EF91
Copy OK
No errors occurred
AccurateRip summary
Track 1 accurately ripped (confidence 4) [B6CDA25C] (AR v2)
Track 2 accurately ripped (confidence 5) [7893CE1F] (AR v2)
Track 3 accurately ripped (confidence 5) [38FC16A9] (AR v2)
Track 4 accurately ripped (confidence 5) [E0A17F1A] (AR v2)
Track 5 accurately ripped (confidence 5) [9D4A14F6] (AR v2)
Track 6 accurately ripped (confidence 5) [C45A7707] (AR v2)
Track 7 accurately ripped (confidence 5) [5A78078B] (AR v2)
Track 8 accurately ripped (confidence 5) [5921D1DD] (AR v2)
Track 9 accurately ripped (confidence 5) [A0538143] (AR v2)
Track 10 accurately ripped (confidence 5) [90FA4791] (AR v2)
Track 11 accurately ripped (confidence 5) [08211802] (AR v2)
Track 12 accurately ripped (confidence 5) [595721DC] (AR v2)
Track 13 accurately ripped (confidence 5) [4F69FA5F] (AR v2)
Track 14 accurately ripped (confidence 5) [D43131E8] (AR v2)
Track 15 accurately ripped (confidence 5) [DBD123DC] (AR v2)
Track 16 accurately ripped (confidence 5) [AFBD319C] (AR v2)
Track 17 accurately ripped (confidence 5) [57F98106] (AR v2)
Track 18 accurately ripped (confidence 5) [EA45DB13] (AR v2)
Track 19 accurately ripped (confidence 5) [79099A04] (AR v2)
Track 20 accurately ripped (confidence 5) [A74FB9D5] (AR v2)
Track 21 accurately ripped (confidence 5) [EF27B57E] (AR v2)
Track 22 accurately ripped (confidence 5) [F1955AD6] (AR v2)
Track 23 accurately ripped (confidence 5) [ACEC46EB] (AR v2)
Track 24 accurately ripped (confidence 5) [4D56A18C] (AR v2)
Track 25 accurately ripped (confidence 5) [F0DAC423] (AR v2)
Track 26 accurately ripped (confidence 5) [251DFA7F] (AR v2)
Track 27 accurately ripped (confidence 5) [6BFBCCB6] (AR v2)
Track 28 accurately ripped (confidence 5) [F8CBF40E] (AR v2)
Track 29 accurately ripped (confidence 5) [3C94F4E8] (AR v2)
Track 30 accurately ripped (confidence 5) [BAC8B461] (AR v2)
Track 31 accurately ripped (confidence 5) [479EC0C9] (AR v2)
All tracks accurately ripped
End of status report
==== Log checksum 32859D0DE28D540D1889838694242908C42B5ADB3F8D8F064CCAEA177CC40C22 ====



Показать сообщения:    

Текущее время: 09-Дек 06:58

Часовой пояс: UTC + 3


Вы не можете начинать темы
Вы не можете отвечать на сообщения
Вы не можете редактировать свои сообщения
Вы не можете удалять свои сообщения
Вы не можете голосовать в опросах
Вы не можете прикреплять файлы к сообщениям
Вы не можете скачивать файлы