Вольфганг Амадей Моцарт - Волшебная флейта (Брегенцский фестиваль, Дэвид Паунтни) / Wolfgang Amadeus Mozart - Die Zauberflote (Bregenz Festival, David Pountney - Patrick Summers) [2013, Opera, BDRip 720p]


 

[Цитировать]

Вольфганг Амадей Моцарт - Волшебная флейта / Wolfgang Amadeus Mozart - Die Zauberflöte
Год выпуска: 2013
Лейбл: C MAJOR, Unitel Classica
Страна-производитель: Великобритания
Жанр: Opera
Продолжительность: 02:29:18
Язык: Немецкий
Режиссер: David Pountney (Дэвид Паунтни)
Дирижер: Patrick Summers (Патрик Саммерс)
Исполнители:
Alfred Reiter (Альфред Рейтер) - Sarastro,
Norman Reinhardt (Норман Рейнхард) - Tamino,
Ana Durlovski (Анна Дурловски) - Königin der Nacht,
Bernarda Bobro (Бернарда Бобро) - Pamina,
Daniel Schmutzhard (Даниель Шмуцхард) - Papageno,
Dénise Beck (Денис Бек) - Papagena
Prague Philharmonic Chorus (хор Пражской филармонии)
Описание: Дочь Царицы ночи похитил волшебник Зарастро. Царица Ночи посылает принца Тамино спасти девушку и даёт ему волшебный атрибут — флейту и помощников. Принц переходит на сторону волшебника, проходит испытания и получает любовь.

Оригинальное описание

What begins like a fairy-tale turns into a whimsical fantasy halfway between magic farce and Masonic mysticism: The Magic Flute links a love story with the great questions of the Enlightenment, juxtaposes bird-catcher charm with queenly vengeance, and bewitches the listener with music that mixes cheerful melodies, lovers’ arias, show-stopping coloraturas and mysterious chorales.
W. A. Mozart’s opera premiered in 1791 and is one of the most often performed operas in the world. The 2013/2014 production on the Bregenz Festival lake stage impresses the audience with a fantastic setting framed by three dog-dragons, each of them more than twenty meters in height.
Recorded live from the Bregenz Festival, July 2013.
Доп. информация: Волшебная флейта (нем. Die Zauberflöte) (K.620) — опера-зингшпиль Моцарта в двух действиях; либретто Э. Шиканедера.
Первая постановка: Вена, театр «Ауф дер Виден», 30 сентября 1791 года.
Сюжет, обработанный в духе популярных в то время народных феерий, полных экзотических чудес, Шиканедер почерпнул в сказке К. Виланда (1733—1813) «Лулу» из сборника фантастических поэм «Джиннистан, или Избранные сказки про фей и духов» (1786—1789), с дополнением из его же сказок «Лабиринт» и «Умные мальчуганы». В числе дополнительных источников также называют эпическую поэму «Оберон, царь волшебников», с дополнениями по либретто К. В. Хенслера из оперы «Праздник солнца у браминов» Венцеля Мюллера; драму «Тамос, царь египетский» Т. Ф. фон Геблера; роман «Сетос» Ж. Террасона (1731). Называют и работу Игнаца фон Борна, магистра масонской ложи «Zur Wahrheit» («К правде»), «О мистериях египтян» («Über die Mysterien der Ägypter»). Именно фон Борну, скончавшемуся незадолго до написания оперы, либретто и было посвящено.
После смерти Эмануэля Шиканедера на авторство либретто стал претендовать один из актёров театра «Ауф дер Виден» масон Карл Людвиг Гизеке (нем. Carl Ludwig Giesecke).
Качество видео: BDRip
Формат/Контейнер: MKV
Видео кодек: H.264
Аудио кодек: DTS, AC3
Видео поток: H.264, 1280x720, 6188 kbps, 29.970 fps
Аудио поток: DTS, 1509 kbps, 48 kHz, 5 ch. AC3, 192 kbps, 48 kHz, 2 ch

MediaInfo

Общее
Уникальный идентификатор : 203944220758619546950234712033874258323 (0x996E3A69A2C4D1BFAE24FED824EDA993)
Полное имя : W:\Torrent_4\Моцарт - Волшебная флейта (Bregenz Festival) (2013) (BDRip 720p, DTS 5.0).mkv
Формат : Matroska
Версия формата : Version 2
Размер файла : 8,22 Гбайт
Продолжительность : 2 ч. 28 м.
Режим общего битрейта : Переменный
Общий поток : 7903 Кбит/сек
Дата кодирования : UTC 2015-03-15 08:12:44
Программа кодирования : mkvmerge v6.6.0 ('The Edge Of The In Between') built on Dec 1 2013 17:55:00
Библиотека кодирования : libebml v1.3.0 + libmatroska v1.4.1
Видео
Идентификатор : 1
Формат : AVC
Формат/Информация : Advanced Video Codec
Профиль формата : Main@L4.1
Параметр CABAC формата : Да
Параметр ReFrames формата : 3 кадра
Идентификатор кодека : V_MPEG4/ISO/AVC
Продолжительность : 2 ч. 28 м.
Вид битрейта : Переменный
Битрейт : 6045 Кбит/сек
Максимальный битрейт : 8000 Кбит/сек
Ширина : 1280 пикселей
Высота : 720 пикселей
Соотношение сторон : 16:9
Режим частоты кадров : Постоянный
Частота кадров : 29,970 кадров/сек
Стандарт вещания : NTSC
Цветовое пространство : YUV
Субдискретизация насыщенности : 4:2:0
Битовая глубина : 8 бит
Тип развёртки : Прогрессивная
Бит/(Пиксели*Кадры) : 0.219
Размер потока : 6,29 Гбайт (76%)
Язык : German
Default : Да
Forced : Да
colour_range : Limited
Аудио #1
Идентификатор : 2
Формат : DTS
Формат/Информация : Digital Theater Systems
Режим : 16
Параметр Endianness формата : Big
Идентификатор кодека : A_DTS
Продолжительность : 2 ч. 28 м.
Вид битрейта : Постоянный
Битрейт : 1509 Кбит/сек
Каналы : 5 каналов
Расположение каналов : Front: L C R, Side: L R
Частота : 48,0 КГц
Битовая глубина : 24 бит
Метод сжатия : С потерями
Размер потока : 1,57 Гбайт (19%)
Язык : German
Default : Да
Forced : Да
Аудио #2
Идентификатор : 3
Формат : AC-3
Формат/Информация : Audio Coding 3
Расширение режима : CM (complete main)
Параметр Endianness формата : Big
Идентификатор кодека : A_AC3
Продолжительность : 2 ч. 28 м.
Вид битрейта : Постоянный
Битрейт : 192 Кбит/сек
Каналы : 2 канала
Расположение каналов : Front: L R
Частота : 48,0 КГц
Битовая глубина : 16 бит
Метод сжатия : С потерями
Размер потока : 204 Мбайт (2%)
Заголовок : AC3 2.0
Default : Нет
Forced : Нет
Меню
00:00:00.000 : :Chapter 01
00:01:21.181 : :Chapter 02
00:07:50.336 : :Chapter 03
00:14:11.951 : :Chapter 04
00:14:24.964 : :Chapter 05
00:17:17.936 : :Chapter 06
00:21:58.917 : :Chapter 07
00:25:56.288 : :Chapter 08
00:26:39.364 : :Chapter 09
00:31:22.380 : :Chapter 10
00:37:21.739 : :Chapter 11
00:39:37.742 : :Chapter 12
00:43:10.254 : :Chapter 13
00:46:22.079 : :Chapter 14
00:49:55.826 : :Chapter 15
00:56:18.208 : :Chapter 16
00:59:28.131 : :Chapter 17
01:02:47.563 : :Chapter 18
01:07:39.455 : :Chapter 19
01:09:37.873 : :Chapter 20
01:09:57.893 : :Chapter 21
01:12:14.963 : :Chapter 22
01:14:46.849 : :Chapter 23
01:17:22.237 : :Chapter 24
01:21:22.811 : :Chapter 25
01:22:04.452 : :Chapter 26
01:23:23.431 : :Chapter 27
01:25:47.642 : :Chapter 28
01:28:53.461 : :Chapter 29
01:29:57.392 : :Chapter 30
01:31:50.805 : :Chapter 31
01:35:23.350 : :Chapter 32
01:36:49.303 : :Chapter 33
01:38:20.794 : :Chapter 34
01:42:15.963 : :Chapter 35
01:43:35.642 : :Chapter 36
01:45:57.984 : :Chapter 37
01:48:22.696 : :Chapter 38
01:51:04.324 : :Chapter 39
01:52:44.290 : :Chapter 40
01:58:35.408 : :Chapter 41
02:03:04.577 : :Chapter 42
02:09:52.451 : :Chapter 43
02:13:18.690 : :Chapter 44
02:15:29.354 : :Chapter 45
02:18:05.577 : :Chapter 46
02:20:08.933 : :Chapter 47
02:22:51.396 : :Chapter 48
02:28:53.658 : :Chapter 49
02:29:07.705 : :Chapter 50
02:29:17.748 : :Chapter 51

Скриншоты


Blu-ray
16 марта. Торрент перезалит: дорожка DTS-HD MA заменена на DTS.



Показать сообщения:    

Текущее время: 04-Дек 13:17

Часовой пояс: UTC + 3


Вы не можете начинать темы
Вы не можете отвечать на сообщения
Вы не можете редактировать свои сообщения
Вы не можете удалять свои сообщения
Вы не можете голосовать в опросах
Вы не можете прикреплять файлы к сообщениям
Вы не можете скачивать файлы