Ален Делон о сцене с лошадью / Alain Delon a propos d'une scene avec un cheval [17.11.1970, документальный, кинематограф, IPTVRip-AVC] Original (Fre) + Sub (Rus)


Статистика раздачи [Обновить пиров]
Размер:  22 MB   |    Зарегистрирован:  9 месяцев 29 дней   |    Скачан:  0 раз

Полного источника не было: Никогда

 
   
 
 
 

[Цитировать]

Ален Делон о сцене с лошадью
Alain Delon à propos d'une scène avec un cheval- Дата/Год выпуска: 17.11.1970
Страна: Франция
Жанр: документальный, кинематограф
Продолжительность: 00:01:47
Перевод: Субтитры
Русские субтитры: естьФормат субтитров: softsub (SRT)
Доп. информация о субтитрах: перевод Алексей Королев, инициатор Алексей Проскуряков aka Aleks Punk
Оригинальная аудиодорожка: французский
Режиссер: не известен
Телеканал: ina
Описание: Интервью с Аленом Делоном для французского канала ORTF на съемках фильма "Мэдли" реж. Роже Каана, где его партнершей выступила актриса Мирей Дарк.
Доп. информация: За предоставленный материал благодарность Aleks Punk.

качество: IPTVRip-AVC
формат: MKV
Видео: AVC (H.264), 640x480 (4:3), 25 fps, ~1500 kbps avg, 0.195 bit/pixel
Аудио: AC3, 2 ch, 48 kHz, ~192.00 kbps avg

Пример субтитров

1
00:00:01,300 --> 00:00:04,860
В сердце Иль-де-Франс, посреди
бескрайних нив,
2
00:00:05,180 --> 00:00:07,740
располагается старинная
укрепленная ферма(?) 17-го столетия.
3
00:00:08,060 --> 00:00:10,660
В ангарах и на складах груды предметов искусства:
4
00:00:10,820 --> 00:00:15,460
сотни кроватей, ряды гардеробов
любых размеров, лес из люстр
всех стилей и всех эпох.
5
00:00:16,540 --> 00:00:20,420
В этом старинном окружении
живет Жюльен- Ален Делон,
6
00:00:20,820 --> 00:00:22,060
коллекционер предметов искусства.
7
00:00:22,220 --> 00:00:27,420
К нему приезжают со всего мира,
чтобы полюбоваться креслом Мазарини
или взглянуть на папку для бумаг
Наполеона Первого.
8
00:00:28,460 --> 00:00:34,900
С ним разделяет жизнь
Агат - Мирей д'Арк, им хорошо вдвоем
и они вместе проводят время.
9
00:00:35,900 --> 00:00:40,340
Ален Делон, мы только что видели,
как вы прогуливались в деревне с лошадью.
10
00:00:40,500 --> 00:00:43,220
У вас это вызывает
какие-то особые чувства?
11
00:00:45,100 --> 00:00:51,220
- Для меня лично да, потому что я
обожаю лошадей, как, впрочем,
и большинство животных.
12
00:00:51,500 --> 00:00:55,780
Но особенно - лошадей и собак.
13
00:00:56,180 --> 00:01:00,260
Это как раз сцена из "Мадли".
14
00:01:00,540 --> 00:01:07,500
По-моему одна из красивейших. Потому что это
человек, который живет очень счастливо,
и у которого никого нет,
с кем можно поговорить, кому довериться.
15
00:01:07,620 --> 00:01:10,900
И он решает прогуляться по полю
со своей лошадью.
16
00:01:10,980 --> 00:01:13,940
И сказать ей почему он счастлив,
что с ним происходит.
17
00:01:14,100 --> 00:01:17,700
Этот человек любит одновременно двух существ,
одновременно двух женщин.
18
00:01:18,860 --> 00:01:22,660
Он только что это понял,
и объясняет это своей лошади.
19
00:01:22,940 --> 00:01:25,940
Он говорит, что любит этих двух женщин,
что да, это правда.
20
00:01:26,380 --> 00:01:29,300
И что они не равнодушны к нему. (?)

MediaInfo

Общее
Уникальный идентификатор : 244949190247157447551439917875451835330 (0xB8477F7F3973CF53A38CA3D42F42B3C2)
Полное имя : E:\My Torrents 2\[apreder]Alain_Delon_a_propos_d'une_scene_avec_un_cheval(17.11.1970)IPTVRip.mkv
Формат : Matroska
Версия формата : Version 2
Размер файла : 21,8 Мбайт
Продолжительность : 1 м. 47 с.
Общий поток : 1693 Кбит/сек
Дата кодирования : UTC 2015-03-14 19:11:54
Программа кодирования : mkvmerge v7.7.0 ('Six Voices') 64bit built on Feb 28 2015 23:39:33
Библиотека кодирования : libebml v1.3.1 + libmatroska v1.4.2
Видео
Идентификатор : 1
Формат : AVC
Формат/Информация : Advanced Video Codec
Профиль формата : High@L4.1
Параметр CABAC формата : Да
Параметр ReFrames формата : 16 кадров
Идентификатор кодека : V_MPEG4/ISO/AVC
Продолжительность : 1 м. 47 с.
Битрейт : 1500 Кбит/сек
Ширина : 640 пикселей
Высота : 480 пикселей
Соотношение сторон : 4:3
Режим частоты кадров : Постоянный
Частота кадров : 25,000 кадров/сек
Цветовое пространство : YUV
Субдискретизация насыщенности : 4:2:0
Битовая глубина : 8 бит
Тип развёртки : Прогрессивная
Бит/(Пиксели*Кадры) : 0.195
Размер потока : 18,9 Мбайт (87%)
Библиотека кодирования : x264 core 146 r2538 121396c
Настройки программы : cabac=1 / ref=16 / deblock=1:-1:-1 / analyse=0x3:0x133 / me=umh / subme=10 / psy=1 / psy_rd=1.00:0.15 / mixed_ref=1 / me_range=24 / chroma_me=1 / trellis=2 / 8x8dct=1 / cqm=0 / deadzone=21,11 / fast_pskip=1 / chroma_qp_offset=-3 / threads=6 / lookahead_threads=1 / sliced_threads=0 / nr=0 / decimate=1 / interlaced=0 / bluray_compat=0 / constrained_intra=0 / bframes=8 / b_pyramid=2 / b_adapt=2 / b_bias=0 / direct=3 / weightb=1 / open_gop=0 / weightp=2 / keyint=250 / keyint_min=25 / scenecut=40 / intra_refresh=0 / rc_lookahead=60 / rc=2pass / mbtree=1 / bitrate=1500 / ratetol=1.0 / qcomp=0.60 / qpmin=0 / qpmax=69 / qpstep=4 / cplxblur=20.0 / qblur=0.5 / vbv_maxrate=62500 / vbv_bufsize=78125 / nal_hrd=none / filler=0 / ip_ratio=1.40 / aq=1:1.00
Default : Да
Forced : Нет
Аудио
Идентификатор : 2
Формат : AC-3
Формат/Информация : Audio Coding 3
Расширение режима : CM (complete main)
Параметр Endianness формата : Big
Идентификатор кодека : A_AC3
Продолжительность : 1 м. 47 с.
Вид битрейта : Постоянный
Битрейт : 192 Кбит/сек
Каналы : 2 канала
Расположение каналов : Front: L R
Частота : 48,0 КГц
Битовая глубина : 16 бит
Метод сжатия : С потерями
Размер потока : 2,47 Мбайт (11%)
Язык : French
Default : Да
Forced : Нет
Текст
Идентификатор : 3
Формат : UTF-8
Идентификатор кодека : S_TEXT/UTF8
Идентификатор кодека/Информация : UTF-8 Plain Text
Язык : Russian
Default : Да
Forced : Нет

Скриншоты

Резервные скриншоты

-[2'166]
[teatrix.ru].t20625.torrent 
Торрент: Зарегистрирован [ 2016-03-20 00:19 ] · 12B4858DDB91DDD54A6B79027826FD62319E4F0B

Скачать .torrent

Скачать

7 KB

Статус: проверено
Скачан: 0 раз
Размер: 22 MB
terms.php



Показать сообщения:    

Текущее время: 18-Янв 02:34

Часовой пояс: UTC + 3


Вы не можете начинать темы
Вы не можете отвечать на сообщения
Вы не можете редактировать свои сообщения
Вы не можете удалять свои сообщения
Вы не можете голосовать в опросах
Вы не можете прикреплять файлы к сообщениям
Вы можете скачивать файлы