Вольфганг Моцарт - Так поступают все (Мадридский королевский театр, Михаэль Ханеке, Сильвен Канбрелен) / Wolfgang Mozart - Così Fan Tutte (Teatro Real Madrid, Michael Haneke, Sylvain Cambreling) [2013, Opera, BDRip 720p]


 

[Цитировать]

Вольфганг Моцарт - Так поступают все / Wolfgang Mozart - Così Fan Tutte
Год выпуска: 2013
Лейбл: C MAJOR, Teatro Real Madrid
Страна-производитель: Испания, США
Жанр: Opera
Продолжительность: 03:21:17
Язык: Итальянский
Режиссер: Michael Haneke (Михаэль Ханеке)
Дирижер: Sylvain Cambreling (Сильвен Канбрелен)
Исполнители:
Anett Fritsch (Анетт Фрич) - Fiordiligi,
Paola Gardina (Паола Гардина) - Dorabella,
Juan Francisco Gatell (Хуан Франциско Гэтелл) - Ferrando,
Andreas Wolf (Андреас Вольф) - Guglielmo,
Kerstin Avemo (Керстин Авемо) - Despina,
William Shimell (Уильям Шимелл) - Don Alfonso
Teatro Real Madrid Chorus and Orchestra (хор и оркестр королевского театра в Мадриде)
Описание: Старый скептик и циник философ дон Альфонсо убеждает молодых офицеров Феррандо и Гульельмо, обручившихся с сестрами Фьордилиджи и Дорабеллой, что женщины легкомысленны, а их верность в лучшем случае сомнительна. Женихи решают испытать верность возлюбленных и сообщают невестам, что должны немедленно отправиться на войну. Сестры в слезах прощаются с женихами. Альфонсо удается вовлечь в игру хитрую служанку Деспину. В дом входят переодетые албанцами Феррандо и Гульельмо и начинают ухаживать за Фьордилиджи и Дорабеллой, причем каждый объясняется в любви невесте другого. Девушки с негодованием отвергают поклонников, но затем, видя, что огорченные чужеземцы готовы покончить с собой, становятся благосклонными. Первой уступает Дорабелла: она не только принимает в подарок золотое сердечко от Гульельмо, но дарит ему медальон с портретом Феррандо. После колебаний и Фьордилиджи уступает настояниям Феррандо. Юноши огорчены неверностью возлюбленных, но дон Альфонсо утешает их тем, что так поступают все женщины. Сестры готовы обвенчаться с мнимыми албанцами. Деспина, ранее переодевавшаяся в костюм доктора, чтобы лечить влюбленных, якобы принявших яд, теперь в качестве нотариуса готова составить брачный контракт. В момент его подписания раздается марш, возвещающий возвращение армии. Значит, должны вернуться и женихи. Сестры смущены. «Албанцы» исчезают, и вскоре появляются Феррандо и Гульельмо. Они разыгрывают комедию ревности, угрожая местью. Альфонсо примиряет влюбленных.

Оригинальное описание

Who loves whom in Così fan tutte, Mozart’s and Da Ponte’s cruelly comic reflection on desire, fidelity and betrayal? Or have the confusions to which the main characters subject one another ensured that in spite of the heartfelt love duets and superficially fleetfooted comedy nothing will work any longer and that a sense of emotional erosion has replaced true feelings? Così fan tutte is a timeless work full of questions that affect us all. The Academy Award-winning director Michael Haneke once said that he was merely being precise and did not want to distort reality. In only his second opera production after Don Giovanni in 2006, he presents what ARTE described as a “disillusioned vision of love in an ice-cold, realistic interpretation”. And according to the online version of ZEIT, six “fabulous vocal soloists cast from 120 international applicants” bring gentle melancholy and moving vulnerability to Haneke‘s radical staging.
Либретто

Рецензия

"Дирижерская трактовка Сильвена Камбрелена с ее тяжеловесностью, прозаичностью и замедленными темпами сама по себе сомнительное достижение среди новейших интерпретаций головокружительной моцартовской партитуры. Правда, в сочетании с невероятно качественным, практически эталонным уровнем вокала, который обнаруживает этот спектакль, в этой старомодности нет-нет да и проступает то же неуловимое "сейчас такого не делают", что и на почтенных старых пластинках. С другой стороны, хладнокровный педантизм дирижера, как оказалось, неожиданно удачно сочетается с почерком самого режиссера, показавшего капризной мадридской публике обманчиво красивую картинку, но при этом препарирующего души моцартовских героев с такой беспощадной тщательностью, какой современная постановочная история "Cosi", пожалуй, еще не знала. " С. Ходнев
Качество видео: BDRip
Формат/Контейнер: MKV
Видео кодек: H.264
Аудио кодек: AC3
Видео поток: H.264, 1280x720, 6160 kbps, 29.970 fps
Аудио поток: AC3, 448 kbps, 48 kHz, 6 ch. AC3, 448 kbps, 48 kHz, 2 ch

MediaInfo

Общее
Уникальный идентификатор : 215502077734218997887760342978144617350 (0xA22030C1E51174FD9158F07B8A61C386)
Полное имя : D:\Фильмы DVD и HD\Моцарт - Так поступают все (Teatro Real Madrid) (2013) (BDRip 720p, AC3 5.1).mkv
Формат : Matroska
Версия формата : Version 4 / Version 2
Размер файла : 10,1 Гбайт
Продолжительность : 3 ч. 21 м.
Режим общего битрейта : Переменный
Общий поток : 7199 Кбит/сек
Дата кодирования : UTC 2015-03-06 09:34:27
Программа кодирования : mkvmerge v7.7.0 ('Six Voices') 64bit built on Feb 28 2015 23:39:33
Библиотека кодирования : libebml v1.3.1 + libmatroska v1.4.2
DURATION : 03:21:16.960000000
NUMBER_OF_FRAMES : 377405
NUMBER_OF_BYTES : 676309760
_STATISTICS_WRITING_APP : mkvmerge v7.7.0 ('Six Voices') 64bit built on Feb 28 2015 23:39:33
_STATISTICS_WRITING_DATE_UTC : 2015-03-06 09:34:27
_STATISTICS_TAGS : BPS DURATION NUMBER_OF_FRAMES NUMBER_OF_BYTES
Видео
Идентификатор : 1
Формат : AVC
Формат/Информация : Advanced Video Codec
Профиль формата : Main@L4.1
Параметр CABAC формата : Да
Параметр ReFrames формата : 3 кадра
Параметр GOP формата : M=4, N=29
Идентификатор кодека : V_MPEG4/ISO/AVC
Продолжительность : 3 ч. 21 м.
Вид битрейта : Переменный
Битрейт : 6160 Кбит/сек
Максимальный битрейт : 8000 Кбит/сек
Ширина : 1280 пикселей
Высота : 720 пикселей
Соотношение сторон : 16:9
Режим частоты кадров : Постоянный
Частота кадров : 29,970 кадров/сек
Стандарт вещания : NTSC
Цветовое пространство : YUV
Субдискретизация насыщенности : 4:2:0
Битовая глубина : 8 бит
Тип развёртки : Прогрессивная
Бит/(Пиксели*Кадры) : 0.223
Размер потока : 8,66 Гбайт (86%)
Язык : English
Default : Да
Forced : Нет
colour_range : Limited
Аудио #1
Идентификатор : 2
Формат : AC-3
Формат/Информация : Audio Coding 3
Расширение режима : CM (complete main)
Параметр Endianness формата : Big
Идентификатор кодека : A_AC3
Продолжительность : 3 ч. 21 м.
Вид битрейта : Постоянный
Битрейт : 448 Кбит/сек
Каналы : 6 каналов
Расположение каналов : Front: L C R, Side: L R, LFE
Частота : 48,0 КГц
Битовая глубина : 16 бит
Метод сжатия : С потерями
Размер потока : 645 Мбайт (6%)
Заголовок : AC3 5.1
Язык : English
Default : Да
Forced : Нет
Аудио #2
Идентификатор : 3
Формат : AC-3
Формат/Информация : Audio Coding 3
Расширение режима : CM (complete main)
Параметр Endianness формата : Big
Идентификатор кодека : A_AC3
Продолжительность : 3 ч. 21 м.
Вид битрейта : Постоянный
Битрейт : 448 Кбит/сек
Каналы : 2 канала
Расположение каналов : Front: L R
Частота : 48,0 КГц
Битовая глубина : 16 бит
Метод сжатия : С потерями
Размер потока : 645 Мбайт (6%)
Заголовок : AC3 2.0
Язык : English
Default : Нет
Forced : Нет

Скриншоты


Blu-ray



Показать сообщения:    

Текущее время: 04-Дек 04:58

Часовой пояс: UTC + 3


Вы не можете начинать темы
Вы не можете отвечать на сообщения
Вы не можете редактировать свои сообщения
Вы не можете удалять свои сообщения
Вы не можете голосовать в опросах
Вы не можете прикреплять файлы к сообщениям
Вы не можете скачивать файлы