Портрет звезды: Ален Делон / Portrait d'une star: Alain Delon (Лоран Тесье / Laurent Thessier) [03.06.1965, документальный, кинематограф, IPTVRip-AVC] Original (Fre) + Sub (Rus)


Статистика раздачи [Обновить пиров]
Размер:  20 MB   |    Зарегистрирован:  8 месяцев 20 дней   |    Скачан:  0 раз

Полного источника не было: Никогда

 
   
 
 
 

[Цитировать]

Портрет звезды: Ален Делон
Portrait d'une star: Alain Delon- Дата/Год выпуска: 03.06.1965
Страна: Франция
Жанр: документальный, кинематограф
Продолжительность: 00:01:37
Перевод: Субтитры
Русские субтитры: естьФормат субтитров: softsub (SRT)
Доп. информация о субтитрах: перевод Алексей Королев, инициатор Алексей Проскуряков aka Aleks Punk
Оригинальная аудиодорожка: французский
Режиссер: Лоран Тесье / Laurent Thessier
Телеканал: ina
Описание: Национальный институт аудиовизуальных средств Франции (Institut national de l'audiovisuel) представляет небольшое интервью Алена Делона в аэропорту Орли по возвращению из США в Европу из передачи "Портрет звезды", приуроченной к 30-летию актера. Сопровождает актера его жена актриса Натали Делон.
Доп. информация: За предоставленный материал благодарность Aleks Punk.

качество: IPTVRip-AVC
формат: MKV
Видео: AVC (H.264), 640x480 (4:3), 25 fps, ~1500 kbps avg, 0.195 bit/pixel
Аудио: AC3, 2 ch, 48 kHz, ~192.00 kbps avg

Пример субтитров

1
00:00:07,380 --> 00:00:08,700
- Добрый день, мадам.
2
00:00:09,060 --> 00:00:12,060
(неразборчиво)
3
00:00:15,140 --> 00:00:20,620
- Да, вы звезда, когда вас встречают
столько журналистов, чтобы
взять интервью.
4
00:00:21,020 --> 00:00:23,340
Ален Делон вернулся
из Соединенных Штатов,
5
00:00:23,460 --> 00:00:26,860
и уже очень давно Орли
не знал такого приема.
6
00:00:30,540 --> 00:00:34,060
Я был очень взволнован,
я даже не пытался это скрыть,
это было трудно скрыть,
7
00:00:34,140 --> 00:00:37,340
потому что я не ожидал
такого приема со стороны
8
00:00:38,060 --> 00:00:39,820
всех вас,
которых так много здесь.
9
00:00:39,900 --> 00:00:43,540
- Ален Делон, вы - французская
знаменитость, но вы ещё и звезда
международного уровня,
10
00:00:43,780 --> 00:00:47,700
тогда как есть много знаменитостей,
и даже крупных, и они только
французские знаменитости.
11
00:00:47,820 --> 00:00:49,980
Как бы вы это объяснили?
12
00:00:50,060 --> 00:00:55,860
- Не знаю, во-первых, я не совсем с вами
согласен: есть много французских
звёзд, которые также и звёзды
международного уровня.
13
00:00:56,060 --> 00:00:59,020
Например, Брижит Бардо,
Жанна Моро, Жан-Поль Бельмондо...
14
00:00:59,140 --> 00:01:05,700
Симона Синьоре - всё это звезды
международного уровня, их фильмы
смотрят по всему миру и имеют
успех во всем мире.
15
00:01:05,820 --> 00:01:10,660
- Вас не утомляет немного ваша
короткая карьера с таким большим успехом?
16
00:01:10,740 --> 00:01:13,980
- Да нет, я думаю, я в самом начале
моей карьеры.
17
00:01:14,140 --> 00:01:19,060
По крайней мере я надеюсь.
- Иногда бывает вот такой вот шум вокруг вас,
вам не хочется заняться чем-то другим?
18
00:01:19,420 --> 00:01:22,660
- Нет, мне нравится моя профессия,
я в восторге от неё.
19
00:01:22,780 --> 00:01:25,860
Это не всегда легко, но ничего.

MediaInfo

Общее
Уникальный идентификатор : 225843043523241302702401058572880339321 (0xA9E7C9BC069AD48A84274E3098A06179)
Полное имя : E:\My Torrents 2\[apreder]Portrait_d'une_star_Alain_Delon(03.06.1965)IPTVRip.mkv
Формат : Matroska
Версия формата : Version 2
Размер файла : 19,6 Мбайт
Продолжительность : 1 м. 37 с.
Общий поток : 1682 Кбит/сек
Дата кодирования : UTC 2015-03-15 09:17:01
Программа кодирования : mkvmerge v7.7.0 ('Six Voices') 64bit built on Feb 28 2015 23:39:33
Библиотека кодирования : libebml v1.3.1 + libmatroska v1.4.2
Видео
Идентификатор : 1
Формат : AVC
Формат/Информация : Advanced Video Codec
Профиль формата : High@L4.1
Параметр CABAC формата : Да
Параметр ReFrames формата : 16 кадров
Идентификатор кодека : V_MPEG4/ISO/AVC
Продолжительность : 1 м. 37 с.
Битрейт : 1500 Кбит/сек
Ширина : 640 пикселей
Высота : 480 пикселей
Соотношение сторон : 4:3
Режим частоты кадров : Постоянный
Частота кадров : 25,000 кадров/сек
Цветовое пространство : YUV
Субдискретизация насыщенности : 4:2:0
Битовая глубина : 8 бит
Тип развёртки : Прогрессивная
Бит/(Пиксели*Кадры) : 0.195
Размер потока : 17,0 Мбайт (87%)
Библиотека кодирования : x264 core 146 r2538 121396c
Настройки программы : cabac=1 / ref=16 / deblock=1:-1:-1 / analyse=0x3:0x133 / me=umh / subme=10 / psy=1 / psy_rd=1.00:0.15 / mixed_ref=1 / me_range=24 / chroma_me=1 / trellis=2 / 8x8dct=1 / cqm=0 / deadzone=21,11 / fast_pskip=1 / chroma_qp_offset=-3 / threads=6 / lookahead_threads=1 / sliced_threads=0 / nr=0 / decimate=1 / interlaced=0 / bluray_compat=0 / constrained_intra=0 / bframes=8 / b_pyramid=2 / b_adapt=2 / b_bias=0 / direct=3 / weightb=1 / open_gop=0 / weightp=2 / keyint=250 / keyint_min=25 / scenecut=40 / intra_refresh=0 / rc_lookahead=60 / rc=2pass / mbtree=1 / bitrate=1500 / ratetol=1.0 / qcomp=0.60 / qpmin=0 / qpmax=69 / qpstep=4 / cplxblur=20.0 / qblur=0.5 / vbv_maxrate=62500 / vbv_bufsize=78125 / nal_hrd=none / filler=0 / ip_ratio=1.40 / aq=1:1.00
Default : Да
Forced : Нет
Аудио
Идентификатор : 2
Формат : AC-3
Формат/Информация : Audio Coding 3
Расширение режима : CM (complete main)
Параметр Endianness формата : Big
Идентификатор кодека : A_AC3
Продолжительность : 1 м. 37 с.
Вид битрейта : Постоянный
Битрейт : 192 Кбит/сек
Каналы : 2 канала
Расположение каналов : Front: L R
Частота : 48,0 КГц
Битовая глубина : 16 бит
Метод сжатия : С потерями
Размер потока : 2,24 Мбайт (11%)
Язык : French
Default : Да
Forced : Нет
Текст
Идентификатор : 3
Формат : UTF-8
Идентификатор кодека : S_TEXT/UTF8
Идентификатор кодека/Информация : UTF-8 Plain Text
Язык : Russian
Default : Да
Forced : Нет

Скриншоты

Резервные скриншоты

-[2'167]
[teatrix.ru].t20628.torrent 
Торрент: Зарегистрирован [ 2016-03-20 00:18 ] · B9E5F6B003A3CEDAC23C62D2FF6840548FF275AF

Скачать .torrent

Скачать

7 KB

Статус: проверено
Скачан: 0 раз
Размер: 20 MB
terms.php



Показать сообщения:    

Текущее время: 09-Дек 22:25

Часовой пояс: UTC + 3


Вы не можете начинать темы
Вы не можете отвечать на сообщения
Вы не можете редактировать свои сообщения
Вы не можете удалять свои сообщения
Вы не можете голосовать в опросах
Вы не можете прикреплять файлы к сообщениям
Вы можете скачивать файлы