(Classical, wind) Poulenc, Taffanel, Jolivet, Tomasi - Danses et Divertissements - Berlin Philharmonic Wind Quintet, Stephen Hough - 2009, FLAC (image+.cue) lossless


 

[Цитировать]

Poulenc, Taffanel, Jolivet, Tomasi - Danses et Divertissements - Berlin Philharmonic Wind Quintet, Stephen Hough
Жанр: Classical, wind
Страна-производитель диска: Sweden
Год издания диска: 2009
Издатель (лейбл): BIS
Номер по каталогу: BIS-SACD-1532
Дата записи: 2004, 2006
Аудиокодек: FLAC
Тип рипа: image+.cue
Битрейт аудио: lossless
Продолжительность: 68:47
Источник: собственный рип
Наличие сканов в содержимом раздачи: да
Треклист:
Claude Paul Taffanel (1844-1908)
[1]-[3] Quintette en sol mineur
pour instruments à vent (1878)
Francis Poulenc (1899-1963)
[4]-[6] Sextuor pour Piano et quintette à vent (1932-1939)
André Jolivet (1905-1974)
[7]-[10] Sérénade pour quintette à vent avec hautbois principal (1945)
Henri Tomasi (1901-1971)
[11]-[15] Cinq Danses Profanes et Sacrées
pour quintette à vent (1948)
Исполнители:
Berlin Philharmonic Wind Quintet
Michael Hasel flute
Andreas Wittmann oboe
Walter Seyfarth clarinet
Fergus McWilliam horn
Henning Trog bassoon
Stephen Hough piano

Лог создания рипа

Exact Audio Copy V1.0 beta 3 from 29. August 2011
EAC extraction logfile from 7. March 2015, 20:29
Berlin Philharmonic Wind Quintet / Danses et Divertissements
Used drive : HL-DT-STDVDRAM GU70N Adapter: 0 ID: 0
Read mode : Secure
Utilize accurate stream : Yes
Defeat audio cache : Yes
Make use of C2 pointers : No
Read offset correction : 48
Overread into Lead-In and Lead-Out : No
Fill up missing offset samples with silence : Yes
Delete leading and trailing silent blocks : No
Null samples used in CRC calculations : Yes
Used interface : Native Win32 interface for Win NT & 2000
Used output format : User Defined Encoder
Selected bitrate : 128 kBit/s
Quality : High
Add ID3 tag : No
Command line compressor : C:\Program Files (x86)\Exact Audio Copy\Flac\flac.exe
Additional command line options : -V -8 -T "Date=%year%" -T "Genre=%genre%" %source%
TOC of the extracted CD
Track | Start | Length | Start sector | End sector
---------------------------------------------------------
1 | 0:00.00 | 8:41.70 | 0 | 39144
2 | 8:41.70 | 5:27.45 | 39145 | 63714
3 | 14:09.40 | 7:26.63 | 63715 | 97227
4 | 21:36.28 | 7:23.39 | 97228 | 130491
5 | 28:59.67 | 4:23.12 | 130492 | 150228
6 | 33:23.04 | 5:34.43 | 150229 | 175321
7 | 38:57.47 | 4:04.44 | 175322 | 193665
8 | 43:02.16 | 3:32.07 | 193666 | 209572
9 | 46:34.23 | 3:34.19 | 209573 | 225641
10 | 50:08.42 | 5:15.01 | 225642 | 249267
11 | 55:23.43 | 2:53.35 | 249268 | 262277
12 | 58:17.03 | 2:39.72 | 262278 | 274274
13 | 60:57.00 | 3:02.70 | 274275 | 287994
14 | 63:59.70 | 2:00.03 | 287995 | 296997
15 | 65:59.73 | 2:47.29 | 296998 | 309551
Range status and errors
Selected range
Filename C:\temp\BIS-SACD-1532 - Danses et Divertissements\Danses et Divertissements.wav
Peak level 99.8 %
Extraction speed 2.3 X
Range quality 100.0 %
Test CRC 0F3624D2
Copy CRC 0F3624D2
Copy OK
No errors occurred
AccurateRip summary
Track 1 accurately ripped (confidence 2) [BC7D394D] (AR v1)
Track 2 accurately ripped (confidence 2) [C0E4F5EB] (AR v1)
Track 3 accurately ripped (confidence 2) [A787A7AE] (AR v1)
Track 4 accurately ripped (confidence 2) [5A85B20F] (AR v1)
Track 5 accurately ripped (confidence 2) [F860535D] (AR v1)
Track 6 accurately ripped (confidence 2) [71367DB5] (AR v1)
Track 7 accurately ripped (confidence 2) [45124416] (AR v1)
Track 8 accurately ripped (confidence 2) [7D602870] (AR v1)
Track 9 accurately ripped (confidence 2) [22D2565A] (AR v1)
Track 10 accurately ripped (confidence 2) [EE2E24C2] (AR v1)
Track 11 accurately ripped (confidence 2) [444C8CF3] (AR v1)
Track 12 accurately ripped (confidence 2) [3B6E9F2E] (AR v1)
Track 13 accurately ripped (confidence 2) [0C5E8DF1] (AR v1)
Track 14 accurately ripped (confidence 2) [D1C8BCB0] (AR v1)
Track 15 accurately ripped (confidence 2) [2E900C93] (AR v1)
All tracks accurately ripped
End of status report
==== Log checksum 10759CF5A55F9ECE109126D718EDAE9CB81537AF2855B38F3CA6E57AE56890F1 ====



Показать сообщения:    

Текущее время: 07-Дек 13:31

Часовой пояс: UTC + 3


Вы не можете начинать темы
Вы не можете отвечать на сообщения
Вы не можете редактировать свои сообщения
Вы не можете удалять свои сообщения
Вы не можете голосовать в опросах
Вы не можете прикреплять файлы к сообщениям
Вы не можете скачивать файлы