(Opera) Reznicek - Ritter Blaubart (Pittman-Jennings, Kotchinian, Worle, Lindsley - Rundfunk-Sinfonieorchester Berlin, Jurowski/Михаил Юровский) - 2003, APE (image+.cue) lossless


 

[Цитировать]

Emil Nikolaus von Reznicek - Ritter Blaubart
Жанр: Opera
Страна-производитель диска: Germany
Год издания диска: 2003
Издатель (лейбл): CPO
Номер по каталогу: 999 899-2
Дата записи: 2002
Аудиокодек: APE
Тип рипа: image+.cue
Битрейт аудио: lossless
Продолжительность: 54'31+78'08
Источник: собственный рип
Наличие сканов в содержимом раздачи: да
Треклист:
Disc 1
1. Act 1. Introduction
2. Act 1. Was ist das für ein Mensch, Werner!
3. Act 1. Was willst du?
4. Act 1. Eine seltsame Gesellschaft
5. Act 1. Interludium
6. Act 1. Halt, Josua!
7. Act 1. Interludium
8. Act 1. Darf ich euch bitten, verehrte Gäste
9. Act 1. Daß ich diesen Tag erleben mußte
10. Act 1. Werner? Bist du allein?
11. Act 1. Ich habe dich beleidigt
12. Act 1. Hast du den Vater nicht gesehen, Agnes?
Disc 2
1. Act 2. Welch ein goldener Tag!
2. Act 2. Rate, wer ist das!
3. Act 2. Was bedeutet dies alles!
4. Act 2. Nachts muß ich oft dein denken
5. Act 2. Hab' ich denn niemanden und nichts
6. Act 2. Das ist ja Wahnsinn
7. Act 2. Kommt, kommt ihr Vögelchen
8. Act 2. Zu Hilfe! Was war das!
9. Act 2. Still! Still! Herz!
10. Act 2. Interludium
11. Act 3. Gott gebe dir Frieden, toter Mensch
12. Act 3. Halt' ein!
13. Act 3. Komm', Hinz!
14. Act 3. Interludium
15. Act 3. Glüh', Feuer, glüh'!
16. Act 3. Wie wird das enden, Rainer?
17. Act 3. So hetzt ihre Seele den andern nach
Исполнители:
Emil Nikolaus von Reznicek - Ritter Blaubart
Fairy Tale Opera in 3 Acts
Libretto: Herbert Eulenberg
Ritter Blaubart - David Pittman-Jennings, baritone
Count Nikolaus - Arutjun Kotchinian, bass
Werner - Robert Wörle, tenor
Judith - Celina Lindsley, soprano
Agnes - Andion Fernandez, soprano
Rundfunk-Sinfonieorchester Berlin
Michail Jurowski

Лог создания рипа

CD1

Exact Audio Copy V1.0 beta 3 from 29. August 2011
EAC extraction logfile from 2. March 2015, 19:02
Reznicek / Ritter Blaubart, Jurowski CD1
Used drive : TSSTcorpCDDVDW SE-208AB Adapter: 1 ID: 0
Read mode : Secure
Utilize accurate stream : Yes
Defeat audio cache : Yes
Make use of C2 pointers : No
Read offset correction : 6
Overread into Lead-In and Lead-Out : No
Fill up missing offset samples with silence : Yes
Delete leading and trailing silent blocks : No
Null samples used in CRC calculations : Yes
Used interface : Native Win32 interface for Win NT & 2000
Used output format : Monkey's Audio Lossless Encoder
Selected bitrate : High Lossless Compression
Quality : High
Add ID3 tag : Yes
Command line compressor : C:\Program Files (x86)\Exact Audio Copy\MAC\MAC.exe
TOC of the extracted CD
Track | Start | Length | Start sector | End sector
---------------------------------------------------------
1 | 0:00.00 | 1:01.29 | 0 | 4603
2 | 1:01.29 | 2:50.33 | 4604 | 17386
3 | 3:51.62 | 1:50.72 | 17387 | 25708
4 | 5:42.59 | 7:41.30 | 25709 | 60313
5 | 13:24.14 | 6:17.48 | 60314 | 88636
6 | 19:41.62 | 8:34.02 | 88637 | 127188
7 | 28:15.64 | 7:54.71 | 127189 | 162809
8 | 36:10.60 | 4:31.01 | 162810 | 183135
9 | 40:41.61 | 1:34.26 | 183136 | 190211
10 | 42:16.12 | 4:21.22 | 190212 | 209808
11 | 46:37.34 | 3:15.09 | 209809 | 224442
12 | 49:52.43 | 4:36.73 | 224443 | 245215
Range status and errors
Selected range
Filename D:\EAC\Reznicek - Ritter Blaubart, Jurowski CD1.wav
Peak level 91.2 %
Extraction speed 4.4 X
Range quality 99.9 %
Test CRC 1FF61D61
Copy CRC 1FF61D61
Copy OK
No errors occurred
AccurateRip summary
Track 1 accurately ripped (confidence 4) [92BA175D] (AR v2)
Track 2 accurately ripped (confidence 4) [6BC8687E] (AR v2)
Track 3 accurately ripped (confidence 4) [EE94650D] (AR v2)
Track 4 accurately ripped (confidence 4) [E5356B26] (AR v2)
Track 5 accurately ripped (confidence 4) [44433A54] (AR v2)
Track 6 accurately ripped (confidence 4) [C07617B5] (AR v2)
Track 7 accurately ripped (confidence 4) [34E3D0DB] (AR v2)
Track 8 accurately ripped (confidence 4) [33B1C4A5] (AR v2)
Track 9 accurately ripped (confidence 4) [76C43743] (AR v2)
Track 10 accurately ripped (confidence 4) [89FF0C51] (AR v2)
Track 11 accurately ripped (confidence 4) [A5E5594D] (AR v2)
Track 12 accurately ripped (confidence 4) [4237E8AB] (AR v2)
All tracks accurately ripped
End of status report
---- CUETools DB Plugin V2.1.3
[CTDB TOCID: zOnl5iYdy0fPwmy3ZhktiKcSB6Y-] disk not present in database, Submit result: zOnl5iYdy0fPwmy3ZhktiKcSB6Y- has been uploaded
==== Log checksum C5169391E1F8FF9BF566205D077699BC8952E59E24368DF8F76D697C75244AD5 ====

CD2

Exact Audio Copy V1.0 beta 3 from 29. August 2011
EAC extraction logfile from 2. March 2015, 19:21
Reznicek / Ritter Blaubart, Jurowski CD2
Used drive : TS8XDVDSTRANSCEND Adapter: 1 ID: 1
Read mode : Secure
Utilize accurate stream : Yes
Defeat audio cache : Yes
Make use of C2 pointers : No
Read offset correction : 6
Overread into Lead-In and Lead-Out : No
Fill up missing offset samples with silence : Yes
Delete leading and trailing silent blocks : No
Null samples used in CRC calculations : Yes
Used interface : Native Win32 interface for Win NT & 2000
Used output format : Monkey's Audio Lossless Encoder
Selected bitrate : High Lossless Compression
Quality : High
Add ID3 tag : Yes
Command line compressor : C:\Program Files (x86)\Exact Audio Copy\MAC\MAC.exe
TOC of the extracted CD
Track | Start | Length | Start sector | End sector
---------------------------------------------------------
1 | 0:00.00 | 3:12.19 | 0 | 14418
2 | 3:12.19 | 8:14.14 | 14419 | 51482
3 | 11:26.33 | 0:56.10 | 51483 | 55692
4 | 12:22.43 | 1:15.16 | 55693 | 61333
5 | 13:37.59 | 2:01.18 | 61334 | 70426
6 | 15:39.02 | 3:03.47 | 70427 | 84198
7 | 18:42.49 | 1:31.61 | 84199 | 91084
8 | 20:14.35 | 1:17.11 | 91085 | 96870
9 | 21:31.46 | 4:49.66 | 96871 | 118611
10 | 26:21.37 | 5:43.00 | 118612 | 144336
11 | 32:04.37 | 3:07.30 | 144337 | 158391
12 | 35:11.67 | 8:09.53 | 158392 | 195119
13 | 43:21.45 | 5:39.46 | 195120 | 220590
14 | 49:01.16 | 8:52.69 | 220591 | 260559
15 | 57:54.10 | 5:36.19 | 260560 | 285778
16 | 63:30.29 | 9:06.13 | 285779 | 326741
17 | 72:36.42 | 5:29.34 | 326742 | 351450
Range status and errors
Selected range
Filename D:\EAC\Reznicek - Ritter Blaubart, Jurowski CD2.wav
Peak level 90.2 %
Extraction speed 3.5 X
Range quality 100.0 %
Test CRC 20C2C975
Copy CRC 20C2C975
Copy OK
No errors occurred
AccurateRip summary
Track 1 accurately ripped (confidence 4) [34CA85F0] (AR v2)
Track 2 accurately ripped (confidence 4) [807B720F] (AR v2)
Track 3 accurately ripped (confidence 4) [7CAB2281] (AR v2)
Track 4 accurately ripped (confidence 4) [7B1D8C8F] (AR v2)
Track 5 accurately ripped (confidence 4) [26C3AD64] (AR v2)
Track 6 accurately ripped (confidence 4) [5C5195CA] (AR v2)
Track 7 accurately ripped (confidence 4) [1CC2EE1D] (AR v2)
Track 8 accurately ripped (confidence 4) [105B79FA] (AR v2)
Track 9 accurately ripped (confidence 4) [300BBC69] (AR v2)
Track 10 accurately ripped (confidence 4) [D0D15B90] (AR v2)
Track 11 accurately ripped (confidence 4) [8BC86875] (AR v2)
Track 12 accurately ripped (confidence 4) [52A68627] (AR v2)
Track 13 accurately ripped (confidence 4) [81AA0053] (AR v2)
Track 14 accurately ripped (confidence 4) [4C77E21E] (AR v2)
Track 15 accurately ripped (confidence 4) [4D892C94] (AR v2)
Track 16 accurately ripped (confidence 4) [E62588F5] (AR v2)
Track 17 accurately ripped (confidence 4) [9865E125] (AR v2)
All tracks accurately ripped
End of status report
---- CUETools DB Plugin V2.1.3
[CTDB TOCID: wNdLbplZUHyW8.HrOahOQNMaL.A-] disk not present in database, Submit result: unrecognized or virtual drive
==== Log checksum 4E5CC8039B1CF3208D2FD41884C5953DFD12C2F0DF4E28D340973B616D044870 ====

Содержание индексной карты (.CUE)

CD1

REM GENRE Opera
REM DATE 2002
REM DISCID AE0CC50C
REM COMMENT "ExactAudioCopy v1.0b3"
CATALOG 0761203989928
PERFORMER "Reznicek"
TITLE "Ritter Blaubart, Jurowski CD1"
FILE "Reznicek - Ritter Blaubart, Jurowski CD1.ape" WAVE
TRACK 01 AUDIO
TITLE "Introduction"
PERFORMER "Reznicek"
ISRC DEB200289901
INDEX 01 00:00:00
TRACK 02 AUDIO
TITLE "Was ist das für ein Mensch, Werner!"
PERFORMER "Reznicek"
ISRC DEB200289902
INDEX 01 01:01:29
TRACK 03 AUDIO
TITLE "Was willst Du?"
PERFORMER "Reznicek"
ISRC DEB200289903
INDEX 01 03:51:62
TRACK 04 AUDIO
TITLE "Eine seltsame Gesellschaft"
PERFORMER "Reznicek"
ISRC DEB200289904
INDEX 01 05:42:59
TRACK 05 AUDIO
TITLE "Interludium"
PERFORMER "Reznicek"
ISRC DEB200289905
INDEX 00 13:24:10
INDEX 01 13:24:14
TRACK 06 AUDIO
TITLE "Halt, Josua!"
PERFORMER "Reznicek"
ISRC DEB200289906
INDEX 00 19:41:56
INDEX 01 19:41:62
TRACK 07 AUDIO
TITLE "Interludium"
PERFORMER "Reznicek"
ISRC DEB200289907
INDEX 00 28:15:60
INDEX 01 28:15:64
TRACK 08 AUDIO
TITLE "Darf ich euch bitten, verehrte Gäste"
PERFORMER "Reznicek"
ISRC DEB200289908
INDEX 00 36:10:49
INDEX 01 36:10:60
TRACK 09 AUDIO
TITLE "Daß ich diesen Tag erleben mußte"
PERFORMER "Reznicek"
ISRC DEB200289909
INDEX 01 40:41:61
TRACK 10 AUDIO
TITLE "Werner? Bist Du allein?"
PERFORMER "Reznicek"
ISRC DEB200289910
INDEX 01 42:16:12
TRACK 11 AUDIO
TITLE "Ich habe dich beleidigt"
PERFORMER "Reznicek"
ISRC DEB200289911
INDEX 00 46:37:30
INDEX 01 46:37:34
TRACK 12 AUDIO
TITLE "Hast de den Vater nich gesehen, Agnes?"
PERFORMER "Reznicek"
ISRC DEB200289912
INDEX 01 49:52:43

CD2

REM GENRE Opera
REM DATE 2002
REM DISCID F3124E11
REM COMMENT "ExactAudioCopy v1.0b3"
CATALOG 0761203989928
PERFORMER "Reznicek"
TITLE "Ritter Blaubart, Jurowski CD2"
FILE "Reznicek - Ritter Blaubart, Jurowski CD2.ape" WAVE
TRACK 01 AUDIO
TITLE "Welch ein goldener Tag!"
PERFORMER "Reznicek"
ISRC DEB200289913
INDEX 01 00:00:00
TRACK 02 AUDIO
TITLE "Rate, wer ist das!"
PERFORMER "Reznicek"
ISRC DEB200289914
INDEX 01 03:12:19
TRACK 03 AUDIO
TITLE "Was bedeutet diese alles!"
PERFORMER "Reznicek"
ISRC DEB200289915
INDEX 01 11:26:33
TRACK 04 AUDIO
TITLE "Nachts muß ich oft dein denken"
PERFORMER "Reznicek"
ISRC DEB200289916
INDEX 01 12:22:43
TRACK 05 AUDIO
TITLE "Hab´ ich denn niemanden und nichts"
PERFORMER "Reznicek"
ISRC DEB200289917
INDEX 01 13:37:59
TRACK 06 AUDIO
TITLE "Das ist ja Wahnsinn"
PERFORMER "Reznicek"
ISRC DEB200289918
INDEX 01 15:39:02
TRACK 07 AUDIO
TITLE "Kommt, kommt ihr Vögelchen"
PERFORMER "Reznicek"
ISRC DEB200289919
INDEX 01 18:42:49
TRACK 08 AUDIO
TITLE "Zu Hilfe! Was war das?"
PERFORMER "Reznicek"
ISRC DEB200289920
INDEX 01 20:14:35
TRACK 09 AUDIO
TITLE "Still! Still! Herz!"
PERFORMER "Reznicek"
ISRC DEB200289920
INDEX 01 21:31:46
TRACK 10 AUDIO
TITLE "Interludium"
PERFORMER "Reznicek"
ISRC DEB200289922
INDEX 01 26:21:37
TRACK 11 AUDIO
TITLE "Gott gebe dir Frieden, toter Mensch"
PERFORMER "Reznicek"
ISRC DEB200289923
INDEX 00 32:01:53
INDEX 01 32:04:37
TRACK 12 AUDIO
TITLE "Halt´ ein!"
PERFORMER "Reznicek"
ISRC DEB200289924
INDEX 01 35:11:67
TRACK 13 AUDIO
TITLE "Komm´ ,Hinz!"
PERFORMER "Reznicek"
ISRC DEB200289925
INDEX 01 43:21:45
TRACK 14 AUDIO
TITLE "Interludium"
PERFORMER "Reznicek"
ISRC DEB200289926
INDEX 01 49:01:16
TRACK 15 AUDIO
TITLE "Glüh´ Feuer, glüh´!"
PERFORMER "Reznicek"
ISRC DEB200289927
INDEX 01 57:54:10
TRACK 16 AUDIO
TITLE "Wie wird das enden, Rainer?"
PERFORMER "Reznicek"
ISRC DEB200289927
INDEX 01 63:30:29
TRACK 17 AUDIO
TITLE "So hetzt ihre Seele den andern nach"
PERFORMER "Reznicek"
ISRC DEB200289929
INDEX 01 72:36:42
Доп. информация:
The Austrian late Romantic composer of Czech ancestry, Emil Nikolaus Joseph, Freiherr von Reznicek, studied law and music simultaneously in Graz.
He did not finish his law degree, but continued to study music, his teacher being Wilhelm Mayer (also known as W. A. Rémy).
Subsequently, he conducted at the theater in Graz, in Berlin and a few other places.
From 1886 to 1894 he was Kapellmeister of the 88th Infantry of Prague, and it was here that he saw his greatest triumph with the premiere of Donna Diana (16 December 1894).
In the spring of 1902 he settled in Berlin, touring to Russia and England from time to time.
When the Nazi Party came to power in 1933, Reznicek tried not to become involved, but stayed in Berlin.
Reznicek was a personal friend of Richard Strauss.
However, the relation between the two seems to have been an ambivalent one.
Reznicek's symphonic poem Schlemihl http://teatrix.ru/viewtopic.php?t=4827994 (1912) can be seen as a direct parody of Strauss' A Hero's Life.
The use of (often sarcastic) humor is a feature of much of Reznicek's music, from the jibbering Blaubart in the opera Ritter Blaubart through the sardonic Dance around the Golden Calf from Der Sieger (1913) to the expressionist Tarantella last movement of his Dance Symphony (No. 5, 1925).
This Eulenspiegelei (a reference to the literary prankster Till Eulenspiegel http://teatrix.ru/viewtopic.php?t=4912048 ) frequently got him into trouble in a world that was unaccustomed to the use of humour in music and art.
In operatic terms, the Bluebeard story normally means only Bartók’s masterpiece http://teatrix.ru/viewtopic.php?t=4957310 .
Perhaps Dukas’s Ariane et Barbe-bleue http://teatrix.ru/viewtopic.php?t=4599322 or even Offenbach’s Barbe-bleue will come to mind, but probably not Grétry’s Raoul Barbe-bleue.
And almost certainly not Emil Nikolaus von Reznicek’s Ritter Blaubart, premiered in Darmstadt in 1920, just two years after the appearance of Bluebeard’s Castle.
These two late-Romantic works have had very different fates, and they have little in common.
Rather than the concentrated spareness of Bartók’s two-hander, Reznicek’s opera is a more conventional affair with a bigger cast: among the many characters, Judith gets a sister, brother and father, and there is a Götterdämmerung-like finale in which fire destroys the castle.
This is a well constructed if hardly memorable work.
The Viennese-born Reznicek (1860-1945) knew what he was doing: he held conducting posts in several important theatres and wrote over a dozen operas, of which Donna Diana http://teatrix.ru/viewtopic.php?t=4948832 was the most successful.
Ritter Blaubart owes some of its style to Richard Strauss, and Michail Jurowski conducts with a real feeling for the idiom.
The soprano Celina Lindsley is a fresh, focused Judith, Arutjun Kotchinian reveals a resonant bass as her father Nikolaus, and the baritone David Pittman-Jennings has commanding presence in the title role.



Показать сообщения:    

Текущее время: 07-Дек 17:28

Часовой пояс: UTC + 3


Вы не можете начинать темы
Вы не можете отвечать на сообщения
Вы не можете редактировать свои сообщения
Вы не можете удалять свои сообщения
Вы не можете голосовать в опросах
Вы не можете прикреплять файлы к сообщениям
Вы не можете скачивать файлы