Сергей Юрский. "Я пришел в кино как клоун". (Татьяна Фрейденссон) [2015, Биографический фильм, HDRip, XviD, RU]


Статистика раздачи [Обновить пиров]
Размер:  687 MB   |    Зарегистрирован:  9 месяцев 29 дней   |    Скачан:  0 раз

Полного источника не было: Никогда

 
   
 
 
 

[Цитировать]

Сергей Юрский. "Я пришел в кино как клоун".
Год выпуска: 2015
Страна: Россия
Жанр: Биографический фильм
Продолжительность: 00:51:49
Перевод: Не требуется
Режиссер: Татьяна Фрейденссон
Описание: 16 марта исполняется 80 лет артисту, режиссеру, драматургу Сергею Юрскому - "Остапу Бендеру" из "Золотого теленка", Викнисору из "Республики ШКИД", Дяде Мите из фильма "Любовь и голуби"...
"Границы" - самое важное понятие в жизни Сергея Юрского. "Границы - они во мне. Они прошли через меня насквозь..."Так говорит. Так и живет. Границы. И в этом весь Юрский. Границы между лицедейством и подлинностью собственного я. Между актерством и режиссурой. Границы - занавесом - между сценой и зрительным залом. Между жизнью, в которую Юрский допускает журналистов и жизнью, которой живёт. Но главной границей, которую Сергей Юрьевич, по собственному признанию, так и не пересёк, он считает границу веков. "Я - человек ХХ века. Я там остался". И точка.
Границы - везде. Началось всё с границы манежа цирка, в котором Сергей Юрский провел детство - его отец был худруком ленинградского и московского цирков, а сам Юрский мечтал стать цирковым артистом. Кстати, именно по этой причине Сергей Юрьевич занял, по собственному признанию, судейское кресло в проекте "Минута славы". Там же за кулисами случайно встретил самого близкого друга детства, приехавшего поддержать своего внука, который специально прилетел из Лас-Вегаса, чтобы выступить в "Минуте славы".
Границы - во всём. И всё же Юрский в чем-то не знает границ. В религиозности, взросшей на атеизме. В актерском ремесле. В желании шагнуть дальше - стать режиссером. Это желание стать режиссером навсегда рассорило их с "Императором театрального мира", учителем, великим театральным режиссером Георгием Товстоноговым, и в итоге заставило покинуть БДТ.
Границы - не только в переносном смысле. КГБ в середине 70-х ограничило Юрского в самом важном - его запретили снимать в кино, упраздняли спектакли с его участием: "Нет такого артиста Юрского". Не разрешили покидать границы родины - никаких гастролей. В поисках - того, кто "настучал" на него в КГБ и за что, Юрский сам отправился за ответом в КГБ: "Настучал на Вас тот, кто с Вами рядом - ищите, больше ничего не скажем". Так ему ответили. И Сергей Юрьевич прочертил новую границу - между собой и окружением...
Личные границы. За ними Юрский следит особо ревностно. Что обнаружим мы за ними? Насколько артист Юрский отличается от человека Юрского? В любом случае, зрители узнают Сергея Юрьевича с новой, неожиданной стороны.
(С)

В фильме принимают участие

Сергей Юрский
Дарья Юрская + внуки Сергея Юрьевича
Владимир Меньшов
Евгений Стеблов
Геннадий Хазанов
Леон Попазов (друг детства)
Наталья Тенякова (?)
Олег Басилашвили
Лариса Гузеева
Александр Масляков
Юрий Гальцев
-Релиз посвящается мальчикам флудилки!) Все мы немножко Дяди Мити)))-Автор рипа/записи: Багга
Доп. информация: Запись сделана с телеканала Первый HD. 15.03.2014.
В спасибо тыкать необязательно-Качество: HDRip
Формат видео: AVI
Видео: 704x400 (1.76:1),25 fps, XviD build 50 ~1713 kbps avg, 0.24 bit/pixel
Аудио: 48 kHz, MPEG Layer 3, 2 ch, ~128.00 kbps avg

Отчёт MediaInfo

Общее
Полное имя : N:\Сергей Юрский. Я пришел в кино как клоун. Багга.avi
Формат : AVI
Формат/Информация : Audio Video Interleave
Размер файла : 687 Мбайт
Продолжительность : 51 м.
Общий поток : 1854 Кбит/сек
Библиотека кодирования : MPlayer
Видео
Идентификатор : 0
Формат : MPEG-4 Visual
Профиль формата : Advanced Simple@L5
Параметр BVOP формата : 2
Параметр QPel формата : Нет
Параметр GMC формата : Без точки перехода
Параметр матрицы формата : Default (H.263)
Идентификатор кодека : XVID
Идентификатор кодека/Подсказка : XviD
Продолжительность : 51 м.
Битрейт : 1713 Кбит/сек
Ширина : 704 пикселя
Высота : 400 пикселей
Соотношение сторон : 16:9
Частота кадров : 25,000 кадров/сек
Цветовое пространство : YUV
Субдискретизация насыщенности : 4:2:0
Битовая глубина : 8 бит
Тип развёртки : Прогрессивная
Метод сжатия : С потерями
Бит/(Пиксели*Кадры) : 0.243
Размер потока : 635 Мбайт (92%)
Библиотека кодирования : XviD 64
Аудио
Идентификатор : 1
Формат : MPEG Audio
Версия формата : Version 1
Профиль формата : Layer 3
Режим : Joint stereo
Расширение режима : MS Stereo
Идентификатор кодека : 55
Идентификатор кодека/Подсказка : MP3
Продолжительность : 51 м.
Вид битрейта : Постоянный
Битрейт : 128 Кбит/сек
Каналы : 2 канала
Частота : 48,0 КГц
Метод сжатия : С потерями
Размер потока : 47,5 Мбайт (7%)
Выравнивание : Соединение по промежуткам
Продолжительность промежутка : 24 мс. (0,60 видеокадр)
Время предзагрузки промежутка : 504 мс.
Библиотека кодирования : LAME3.99г!№єђЉ@‚џ@є

Скриншоты

Список мордуленций которым запрещено скачивать мои релизики

Абама, Тягнибок, Ярош, Тимошенко, Микки-маус, Меркель, мужу её, Бандере, Чингиз-Хану, Дракуле, Новодворской, Новодворской еще раз, Борману, Музычко, и третий раз Новодворской...
И тем кто не пошел на конкурсы. Ну и Ахеджаковой. Чо уж. Простите... простите... простите...
[teatrix.ru].t20633.torrent 
Торрент: Зарегистрирован [ 2016-03-20 00:18 ] · DCB13D667FDA6A5A74EA844617FA6F012402D6FD

Скачать .torrent

Скачать

14 KB

Статус: проверено
Скачан: 0 раз
Размер: 687 MB
terms.php



Быстрый ответ

Имя:

      
Для отправки сообщений необходимо включить JavaScript
Показать сообщения:    

Текущее время: 18-Янв 02:34

Часовой пояс: UTC + 3


Вы можете начинать темы
Вы можете отвечать на сообщения
Вы не можете редактировать свои сообщения
Вы не можете удалять свои сообщения
Вы не можете голосовать в опросах
Вы не можете прикреплять файлы к сообщениям
Вы можете скачивать файлы