(Classical, Renaissance) Argentum et Aurum: Musical Treasures from the Early Habsburg Renaissance (Music Collection of the Austrian Middle Ages) - 2015, FLAC (tracks+cue), lossless


 

[Цитировать]

Argentum et Aurum: Musical Treasures from the Early Habsburg Renaissance
Жанр: Classical, Renaissance
Страна-производитель диска: Германия
Год издания диска: 2015
Издатель (лейбл): Naxos
Дата записи: 2014
Аудиокодек: FLAC
Тип рипа: tracks+cue
Битрейт аудио: lossless
Продолжительность: 78:36
Источник: релизер
Исполнители:
Ensemble Leones,
Marc Lewon, Conductor,
Els Janssens-Vanmunster (tracks 1, 3-5, 7,9, 13, 18-20, 22, 27),
Raitis Grigalis (tracks 2, 4, 12, 16, 17, 20, 22, 23, 27, 28).
The period of the early Habsburgs, from c.1340 to c.1520, saw the development of a richly diverse musical culture in the Austrian region. This pioneering selection, the product of an extensive research project conducted at the University of Vienna, presents an overview of music in everyday life, in many cases in première recordings performed by Ensemble Leones. The music is sacred and secular, allowing the listener to eavesdrop on Tyrolean palaces, dance halls and bourgeois homes, and on the singer-poets who travelled the country where old local styles fused with the latest international fashions.
This recording is the product of much specialist work at the University of Vienna, conducted as part of a research project called 'Musical life of the Late Middle Ages in the Austrian Region'. It documents music of the early Habsburg period from around 1340 to c.1520. There are a number of world première recordings of recently discovered music as well as hitherto unknown pieces in this disc. Ensemble Leones have attempted in their performances to recreate the musical ethos of the time and are highly regarded specialists in this repertoire with several recordings to their name composer Arvo Pärt has praised their performances!

Треклист

1. Heinrich Isaac (1450/55-1517): Argentum et aurum* [03:11];
2. Neidhart: Vyol – Urlaub hab der wintter [06:37];
3. Hugo von Montfort (1357-1423): Ich fragt ain wachter [06:13];
4. The Monk of Salzburg (late 14th c.): Das kchúhorn – Untarnslaf [01:37];
5. Oswald von Wolkenstein (c.1377-1445): Skak – Frölich geschrai so well wir machen [01:15];
6. Anon. (late 14th c.): Soyt tart tempre [01:31];
7. Anon. (late 14th c.): Or sus vous dormes trop [05:57];
8. Oswald von Wolkenstein: Durch Barbarei, Arabia [02:31];
9. Neidhart: Der sunnen glanst* [04:44];
10. Neidhart: Do man den gumpel gampel sank [08:18];
11. Oswald von Wolkenstein: Freu dich, du weltlich creatúr [02:16];
12. Oswald von Wolkenstein: Zergangen ist meins herzen we [05:03];
13. Anon. (c.1400): Gegrusset seistu maria* [05:36];
14. Hermann Edlerawer* [02:58];
15. Anon. (15th c.): Von osterreich – Sig, säld und heil* [00:57];
16. Anon. (late 15th c.): So stee ich hie auff diser erd [01:04];
17. Anon. (mid-15th c.): Alle dei filius* [02:12];
18. Anon. (early 15th c.): My ladi, my ladi, myn happ* [01:32];
19. Guillaume Du Fay (1397-1474): Seigneur Leon [01:20];
20. Anon. (late 15th c.): Gespile, liebe gespile gút [00:50];
21. Anon. (late 15th c.): Es sassen höld in ainer stuben* [00:51];
22. Anon. (late 15th c.): Ich sachs ains mals* [01:08];
23. Oswald von Wolkenstein? and Nicolaus Krombsdorfer? (d. 1479): Heýa, heýa nun wie si grollen* [00:59];
24. Johannes Martini (c.1430/40-1497): La Martinella [02:07];
25. Anon. (early 16th c.): Pavane [01:30];
26. Anon. (early 16th c.): Mantúaner dantz [01:23];
27. Paul Hofhaimer (1459-1537): Gottes namen faren wir [01:47];
28. Pfabinschwantz (fl. c.1500): Maria zart, von edler art* [03:11].
* - world premiere recordings.

Лог создания рипа

Exact Audio Copy V1.0 beta 3 from 29. August 2011
EAC extraction logfile from 13. March 2015, 19:07
Ensemble Leones / Argentum et Aurum - Musical Treasures from Early Habsburg
Used drive : HL-DT-STDVD-RAM GH40L Adapter: 2 ID: 1
Read mode : Secure
Utilize accurate stream : Yes
Defeat audio cache : Yes
Make use of C2 pointers : No
Read offset correction : 667
Overread into Lead-In and Lead-Out : No
Fill up missing offset samples with silence : Yes
Delete leading and trailing silent blocks : No
Null samples used in CRC calculations : Yes
Used interface : Native Win32 interface for Win NT & 2000
Gap handling : Appended to previous track
Used output format : User Defined Encoder
Selected bitrate : 1024 kBit/s
Quality : High
Add ID3 tag : No
Command line compressor : C:\Program Files\Exact Audio Copy\FLAC\FLAC.EXE
Additional command line options : -8 -V -T "ARTIST=%artist%" -T "TITLE=%title%" -T "ALBUM=%albumtitle%" -T "DATE=%year%" -T "TRACKNUMBER=%tracknr%" -T "GENRE=%genre%" -T "COMMENT=%comment%" -T "BAND=%albuminterpret%" -T "ALBUMARTIST=%albuminterpret%" -T "COMPOSER=%composer%" %haslyrics%--tag-from-file=LYRICS="%lyricsfile%"%haslyrics% -T "DISCNUMBER=%cdnumber%" -T "TOTALDISCS=%totalcds%" -T "TOTALTRACKS=%numtracks%" %hascover%--picture="%coverfile%"%hascover% %source% -o %dest%
TOC of the extracted CD
Track | Start | Length | Start sector | End sector
---------------------------------------------------------
1 | 0:00.00 | 3:10.30 | 0 | 14279
2 | 3:10.30 | 6:35.31 | 14280 | 43935
3 | 9:45.61 | 6:13.26 | 43936 | 71936
4 | 15:59.12 | 1:38.51 | 71937 | 79337
5 | 17:37.63 | 1:13.47 | 79338 | 84859
6 | 18:51.35 | 1:32.18 | 84860 | 91777
7 | 20:23.53 | 5:56.06 | 91778 | 118483
8 | 26:19.59 | 2:31.26 | 118484 | 129834
9 | 28:51.10 | 4:47.56 | 129835 | 151415
10 | 33:38.66 | 8:13.48 | 151416 | 188438
11 | 41:52.39 | 2:19.62 | 188439 | 198925
12 | 44:12.26 | 4:59.52 | 198926 | 221402
13 | 49:12.03 | 5:35.17 | 221403 | 246544
14 | 54:47.20 | 2:57.39 | 246545 | 259858
15 | 57:44.59 | 1:01.50 | 259859 | 264483
16 | 58:46.34 | 0:59.51 | 264484 | 268959
17 | 59:46.10 | 2:16.30 | 268960 | 279189
18 | 62:02.40 | 1:27.58 | 279190 | 285772
19 | 63:30.23 | 1:22.64 | 285773 | 291986
20 | 64:53.12 | 0:47.05 | 291987 | 295516
21 | 65:40.17 | 0:51.08 | 295517 | 299349
22 | 66:31.25 | 1:11.06 | 299350 | 304680
23 | 67:42.31 | 0:58.16 | 304681 | 309046
24 | 68:40.47 | 2:04.30 | 309047 | 318376
25 | 70:45.02 | 1:29.48 | 318377 | 325099
26 | 72:14.50 | 1:23.64 | 325100 | 331388
27 | 73:38.39 | 1:47.67 | 331389 | 339480
28 | 75:26.31 | 3:08.46 | 339481 | 353626
Track 1
Filename C:\Users\Ian\EACr\01 - Argentum et aurum (Silver and gold).wav
Pre-gap length 0:00:02.00
Peak level 78.1 %
Extraction speed 1.7 X
Track quality 100.0 %
Test CRC F3FBD6ED
Copy CRC F3FBD6ED
Track not present in AccurateRip database
Copy OK
Track 2
Filename C:\Users\Ian\EACr\02 - Vyol - Urlaub hab der wintter.wav
Pre-gap length 0:00:01.34
Peak level 82.7 %
Extraction speed 2.0 X
Track quality 99.9 %
Test CRC CCE939FB
Copy CRC CCE939FB
Track not present in AccurateRip database
Copy OK
Track 3
Filename C:\Users\Ian\EACr\03 - Ich fragt ain wachter.wav
Peak level 82.5 %
Extraction speed 2.3 X
Track quality 100.0 %
Test CRC C7A1E59E
Copy CRC C7A1E59E
Track not present in AccurateRip database
Copy OK
Track 4
Filename C:\Users\Ian\EACr\04 - Das kchúhorn - Untarnslaf.wav
Peak level 53.1 %
Extraction speed 2.0 X
Track quality 100.0 %
Test CRC F0BEA9D6
Copy CRC F0BEA9D6
Track not present in AccurateRip database
Copy OK
Track 5
Filename C:\Users\Ian\EACr\05 - Skak - Frölich geschrai so well wir machen.wav
Pre-gap length 0:00:01.61
Peak level 78.1 %
Extraction speed 1.7 X
Track quality 100.0 %
Test CRC 86AE446B
Copy CRC 86AE446B
Track not present in AccurateRip database
Copy OK
Track 6
Filename C:\Users\Ian\EACr\06 - Soyt tart tempre.wav
Peak level 52.1 %
Extraction speed 2.0 X
Track quality 100.0 %
Test CRC D36716BD
Copy CRC D36716BD
Track not present in AccurateRip database
Copy OK
Track 7
Filename C:\Users\Ian\EACr\07 - Or sus vous dormes trop.wav
Pre-gap length 0:00:01.31
Peak level 93.7 %
Extraction speed 2.7 X
Track quality 100.0 %
Test CRC 31C28FDE
Copy CRC 31C28FDE
Track not present in AccurateRip database
Copy OK
Track 8
Filename C:\Users\Ian\EACr\08 - Durch Barbarei, Arabia.wav
Peak level 56.3 %
Extraction speed 2.5 X
Track quality 100.0 %
Test CRC 5F229564
Copy CRC 5F229564
Track not present in AccurateRip database
Copy OK
Track 9
Filename C:\Users\Ian\EACr\09 - Der sunnen glanst.wav
Peak level 53.9 %
Extraction speed 2.8 X
Track quality 100.0 %
Test CRC 9E706B25
Copy CRC 9E706B25
Track not present in AccurateRip database
Copy OK
Track 10
Filename C:\Users\Ian\EACr\10 - Do man den gumpel gampel sank.wav
Pre-gap length 0:00:03.73
Peak level 69.6 %
Extraction speed 3.0 X
Track quality 99.9 %
Test CRC 41408753
Copy CRC 41408753
Track not present in AccurateRip database
Copy OK
Track 11
Filename C:\Users\Ian\EACr\11 - Freu dich, du weltlich creatúr.wav
Peak level 67.5 %
Extraction speed 2.8 X
Track quality 100.0 %
Test CRC B643BECF
Copy CRC B643BECF
Track not present in AccurateRip database
Copy OK
Track 12
Filename C:\Users\Ian\EACr\12 - Zergangen ist meins herzen we.wav
Pre-gap length 0:00:03.34
Peak level 59.5 %
Extraction speed 3.2 X
Track quality 100.0 %
Test CRC A1FB76AF
Copy CRC A1FB76AF
Track not present in AccurateRip database
Copy OK
Track 13
Filename C:\Users\Ian\EACr\13 - Gegrusset seistu maria.wav
Pre-gap length 0:00:00.31
Peak level 83.4 %
Extraction speed 3.4 X
Track quality 100.0 %
Test CRC A54529C0
Copy CRC A54529C0
Track not present in AccurateRip database
Copy OK
Track 14
Filename C:\Users\Ian\EACr\14 - Hermann Edlerawer.wav
Peak level 38.0 %
Extraction speed 3.2 X
Track quality 100.0 %
Test CRC B834F10B
Copy CRC B834F10B
Track not present in AccurateRip database
Copy OK
Track 15
Filename C:\Users\Ian\EACr\15 - Von osterreich - Sig, sald und heil.wav
Peak level 43.3 %
Extraction speed 2.3 X
Track quality 100.0 %
Test CRC 49223B24
Copy CRC 49223B24
Track not present in AccurateRip database
Copy OK
Track 16
Filename C:\Users\Ian\EACr\16 - So stee ich hie auff diser erd.wav
Pre-gap length 0:00:04.46
Peak level 58.4 %
Extraction speed 2.3 X
Track quality 100.0 %
Test CRC BD942E9A
Copy CRC BD942E9A
Track not present in AccurateRip database
Copy OK
Track 17
Filename C:\Users\Ian\EACr\17 - Alle dei filius.wav
Peak level 39.7 %
Extraction speed 3.1 X
Track quality 100.0 %
Test CRC 13556B9E
Copy CRC 13556B9E
Track not present in AccurateRip database
Copy OK
Track 18
Filename C:\Users\Ian\EACr\18 - My ladi, my ladi, myn happ.wav
Pre-gap length 0:00:04.37
Peak level 92.2 %
Extraction speed 2.9 X
Track quality 100.0 %
Test CRC B6C3602A
Copy CRC B6C3602A
Track not present in AccurateRip database
Copy OK
Track 19
Filename C:\Users\Ian\EACr\19 - Seigneur Leon.wav
Peak level 77.5 %
Extraction speed 2.7 X
Track quality 100.0 %
Test CRC 105B816B
Copy CRC 105B816B
Track not present in AccurateRip database
Copy OK
Track 20
Filename C:\Users\Ian\EACr\20 - Gespile, liebe gespile gút.wav
Pre-gap length 0:00:02.40
Peak level 97.7 %
Extraction speed 2.1 X
Track quality 100.0 %
Test CRC 2DB928D2
Copy CRC 2DB928D2
Track not present in AccurateRip database
Copy OK
Track 21
Filename C:\Users\Ian\EACr\21 - Es sassen höld in ainer stuben.wav
Peak level 27.9 %
Extraction speed 1.6 X
Track quality 99.7 %
Test CRC EDC916C9
Copy CRC EDC916C9
Track not present in AccurateRip database
Copy OK
Track 22
Filename C:\Users\Ian\EACr\22 - Ich sachs ains mals.wav
Peak level 71.6 %
Extraction speed 2.7 X
Track quality 100.0 %
Test CRC 4EF7472F
Copy CRC 4EF7472F
Track not present in AccurateRip database
Copy OK
Track 23
Filename C:\Users\Ian\EACr\23 - Heýa, heýa nun wie si grollen.wav
Pre-gap length 0:00:03.16
Peak level 89.8 %
Extraction speed 2.6 X
Track quality 100.0 %
Test CRC 3651D704
Copy CRC 3651D704
Track not present in AccurateRip database
Copy OK
Track 24
Filename C:\Users\Ian\EACr\24 - La Martinella.wav
Pre-gap length 0:00:02.60
Peak level 36.1 %
Extraction speed 3.1 X
Track quality 100.0 %
Test CRC 81D65A54
Copy CRC 81D65A54
Track not present in AccurateRip database
Copy OK
Track 25
Filename C:\Users\Ian\EACr\25 - Pavane.wav
Peak level 42.7 %
Extraction speed 2.2 X
Track quality 99.8 %
Test CRC AD6D4883
Copy CRC AD6D4883
Track not present in AccurateRip database
Copy OK
Track 26
Filename C:\Users\Ian\EACr\26 - Mantúaner dantz.wav
Peak level 51.1 %
Extraction speed 2.8 X
Track quality 100.0 %
Test CRC E9E3DD13
Copy CRC E9E3DD13
Track not present in AccurateRip database
Copy OK
Track 27
Filename C:\Users\Ian\EACr\27 - Gottes namen faren wir.wav
Pre-gap length 0:00:01.13
Peak level 72.8 %
Extraction speed 2.5 X
Track quality 99.9 %
Test CRC 26A741CC
Copy CRC 26A741CC
Track not present in AccurateRip database
Copy OK
Track 28
Filename C:\Users\Ian\EACr\28 - Maria zart, von edler art.wav
Pre-gap length 0:00:02.38
Peak level 57.1 %
Extraction speed 3.2 X
Track quality 99.9 %
Test CRC 89E555CC
Copy CRC 89E555CC
Track not present in AccurateRip database
Copy OK
None of the tracks are present in the AccurateRip database
No errors occurred
End of status report
---- CUETools DB Plugin V2.1.3
[CTDB TOCID: Y1TAYdd1XReig5FvFLc4cPd0tl8-] found, Submit result: Y1TAYdd1XReig5FvFLc4cPd0tl8- has been confirmed
[98173777] (1/1) Accurately ripped
==== Log checksum CBBFC0362709969116D745E5410E5629A35CA3E2B631A6BAD4F01E260C255A05 ====

CUE-file

REM GENRE Classical
REM DATE 2015
REM DISCID AF126B1C
REM COMMENT "ExactAudioCopy v1.0b3"
PERFORMER "Ensemble Leones"
TITLE "Argentum et Aurum - Musical Treasures from Early Habsburg"
FILE "01 - Argentum et aurum (Silver and gold).wav" WAVE
TRACK 01 AUDIO
TITLE "Argentum et aurum (Silver and gold)"
PERFORMER "Ensemble Leones"
ISRC HKI191403501
INDEX 01 00:00:00
TRACK 02 AUDIO
TITLE "Vyol - Urlaub hab der wintter"
PERFORMER "Ensemble Leones"
ISRC HKI191403502
INDEX 00 03:08:71
FILE "02 - Vyol - Urlaub hab der wintter.wav" WAVE
INDEX 01 00:00:00
FILE "03 - Ich fragt ain wachter.wav" WAVE
TRACK 03 AUDIO
TITLE "Ich fragt ain wachter"
PERFORMER "Ensemble Leones"
ISRC HKI191403503
INDEX 01 00:00:00
FILE "04 - Das kchъhorn - Untarnslaf.wav" WAVE
TRACK 04 AUDIO
TITLE "Das kchъhorn - Untarnslaf"
PERFORMER "Ensemble Leones"
ISRC HKI191403504
INDEX 01 00:00:00
TRACK 05 AUDIO
TITLE "Skak - Frцlich geschrai so well wir machen"
PERFORMER "Ensemble Leones"
ISRC HKI191403505
INDEX 00 01:36:65
FILE "05 - Skak - Frцlich geschrai so well wir machen.wav" WAVE
INDEX 01 00:00:00
FILE "06 - Soyt tart tempre.wav" WAVE
TRACK 06 AUDIO
TITLE "Soyt tart tempre"
PERFORMER "Ensemble Leones"
ISRC HKI191403506
INDEX 01 00:00:00
TRACK 07 AUDIO
TITLE "Or sus vous dormes trop"
PERFORMER "Ensemble Leones"
ISRC HKI191403507
INDEX 00 01:30:62
FILE "07 - Or sus vous dormes trop.wav" WAVE
INDEX 01 00:00:00
FILE "08 - Durch Barbarei, Arabia.wav" WAVE
TRACK 08 AUDIO
TITLE "Durch Barbarei, Arabia"
PERFORMER "Ensemble Leones"
ISRC HKI191403508
INDEX 01 00:00:00
FILE "09 - Der sunnen glanst.wav" WAVE
TRACK 09 AUDIO
TITLE "Der sunnen glanst"
PERFORMER "Ensemble Leones"
ISRC HKI191403509
INDEX 01 00:00:00
TRACK 10 AUDIO
TITLE "Do man den gumpel gampel sank"
PERFORMER "Ensemble Leones"
ISRC HKI191403510
INDEX 00 04:43:58
FILE "10 - Do man den gumpel gampel sank.wav" WAVE
INDEX 01 00:00:00
FILE "11 - Freu dich, du weltlich creatъr.wav" WAVE
TRACK 11 AUDIO
TITLE "Freu dich, du weltlich creatъr"
PERFORMER "Ensemble Leones"
ISRC HKI191403511
INDEX 01 00:00:00
TRACK 12 AUDIO
TITLE "Zergangen ist meins herzen we"
PERFORMER "Ensemble Leones"
ISRC HKI191403512
INDEX 00 02:16:28
FILE "12 - Zergangen ist meins herzen we.wav" WAVE
INDEX 01 00:00:00
TRACK 13 AUDIO
TITLE "Gegrusset seistu maria"
PERFORMER "Ensemble Leones"
ISRC HKI191403513
INDEX 00 04:59:21
FILE "13 - Gegrusset seistu maria.wav" WAVE
INDEX 01 00:00:00
FILE "14 - Hermann Edlerawer.wav" WAVE
TRACK 14 AUDIO
TITLE "Hermann Edlerawer"
PERFORMER "Ensemble Leones"
ISRC HKI191403514
INDEX 01 00:00:00
FILE "15 - Von osterreich - Sig, sald und heil.wav" WAVE
TRACK 15 AUDIO
TITLE "Von osterreich - Sig, sald und heil"
PERFORMER "Ensemble Leones"
ISRC HKI191403515
INDEX 01 00:00:00
TRACK 16 AUDIO
TITLE "So stee ich hie auff diser erd"
PERFORMER "Ensemble Leones"
ISRC HKI191403516
INDEX 00 00:57:04
FILE "16 - So stee ich hie auff diser erd.wav" WAVE
INDEX 01 00:00:00
FILE "17 - Alle dei filius.wav" WAVE
TRACK 17 AUDIO
TITLE "Alle dei filius"
PERFORMER "Ensemble Leones"
ISRC HKI191403517
INDEX 01 00:00:00
TRACK 18 AUDIO
TITLE "My ladi, my ladi, myn happ"
PERFORMER "Ensemble Leones"
ISRC HKI191403518
INDEX 00 02:11:68
FILE "18 - My ladi, my ladi, myn happ.wav" WAVE
INDEX 01 00:00:00
FILE "19 - Seigneur Leon.wav" WAVE
TRACK 19 AUDIO
TITLE "Seigneur Leon"
PERFORMER "Ensemble Leones"
ISRC HKI191403519
INDEX 01 00:00:00
TRACK 20 AUDIO
TITLE "Gespile, liebe gespile gъt"
PERFORMER "Ensemble Leones"
ISRC HKI191403520
INDEX 00 01:20:24
FILE "20 - Gespile, liebe gespile gъt.wav" WAVE
INDEX 01 00:00:00
FILE "21 - Es sassen hцld in ainer stuben.wav" WAVE
TRACK 21 AUDIO
TITLE "Es sassen hцld in ainer stuben"
PERFORMER "Ensemble Leones"
ISRC HKI191403521
INDEX 01 00:00:00
FILE "22 - Ich sachs ains mals.wav" WAVE
TRACK 22 AUDIO
TITLE "Ich sachs ains mals"
PERFORMER "Ensemble Leones"
ISRC HKI191403522
INDEX 01 00:00:00
TRACK 23 AUDIO
TITLE "Heэa, heэa nun wie si grollen"
PERFORMER "Ensemble Leones"
ISRC HKI191403523
INDEX 00 01:07:65
FILE "23 - Heэa, heэa nun wie si grollen.wav" WAVE
INDEX 01 00:00:00
TRACK 24 AUDIO
TITLE "La Martinella"
PERFORMER "Ensemble Leones"
ISRC HKI191403524
INDEX 00 00:55:31
FILE "24 - La Martinella.wav" WAVE
INDEX 01 00:00:00
FILE "25 - Pavane.wav" WAVE
TRACK 25 AUDIO
TITLE "Pavane"
PERFORMER "Ensemble Leones"
ISRC HKI191403525
INDEX 01 00:00:00
FILE "26 - Mantъaner dantz.wav" WAVE
TRACK 26 AUDIO
TITLE "Mantъaner dantz"
PERFORMER "Ensemble Leones"
ISRC HKI191403526
INDEX 01 00:00:00
TRACK 27 AUDIO
TITLE "Gottes namen faren wir"
PERFORMER "Ensemble Leones"
ISRC HKI191403527
INDEX 00 01:22:51
FILE "27 - Gottes namen faren wir.wav" WAVE
INDEX 01 00:00:00
TRACK 28 AUDIO
TITLE "Maria zart, von edler art"
PERFORMER "Ensemble Leones"
ISRC HKI191403528
INDEX 00 01:45:29
FILE "28 - Maria zart, von edler art.wav" WAVE
INDEX 01 00:00:00



Показать сообщения:    

Текущее время: 08-Дек 17:23

Часовой пояс: UTC + 3


Вы не можете начинать темы
Вы не можете отвечать на сообщения
Вы не можете редактировать свои сообщения
Вы не можете удалять свои сообщения
Вы не можете голосовать в опросах
Вы не можете прикреплять файлы к сообщениям
Вы не можете скачивать файлы