Кумиры экрана. Михаил Пуговкин (Руслан Заварзин) [2000, Личности и кумиры, DVB]


Статистика раздачи [Обновить пиров]
Размер:  492 MB   |    Зарегистрирован:  8 месяцев 16 дней   |    Скачан:  0 раз

Полного источника не было: Никогда

 
   
 
 
 

[Цитировать]

Кумиры экрана. Михаил Пуговкин
Дата/Год выпуска: 2000
Страна: Россия
Жанр: Личности и кумиры
Продолжительность: 00:26:15
Перевод: Не требуется
Cтудия / издатель: ВТВ-сервис
Русские субтитры: нет
Режиссер: Руслан Заварзин
Телеканал: Ретро
Описание: Михаил Пуговкин – это замечательный актер, имя которого навсегда будет неразрывно связано с десятками запоминающихся ролей. Он стал частью советского кино, а оно, в свою очередь, сделалось главной страстью всей его жизни. Сегодня любимого актера нет с нами, однако, вспоминая фильмы с участием Михаила Пуговкина, понимаешь, что какая-то частица этого яркого и неординарного человека будет жить вечно.
Знаете ли вы, что...
Михаил Пуговкин ушёл добровольцем на фронт в первые дни войны. Служил в 1147-м стрелковом полку разведчиком. В октябре 1942 года был тяжело ранен в ногу под Ворошиловградом. Ранение оказалось серьёзным, началась гангрена, но ногу удалось спасти. После госпиталя Пуговкин был комиссован с военной службы. Награждён орденом Отечественной войны II степени.
Доп. информация: "Кумиры экрана" - авторская передача Народной артистки СССР Клары Лучко, выступающей в роли ведущей.
Сэмпл: https://www.sendspace.com/file/4ou4ap
качество: DVB
формат: MPG
Видео: MPEG2 720:576 4:3 2376 Кбит/сек 25,000 кадров/сек
Аудио: MPEG Audio 192 Кбит/сек 48,0 КГц 2 канала

MediaInfo

Общее
Полное имя : Кумиры экрана Пуговкин.mpg
Формат : MPEG-PS
Размер файла : 492 Мбайт
Продолжительность : 26 м.
Режим общего битрейта : Переменный
Общий поток : 2620 Кбит/сек
Видео
Идентификатор : 224 (0xE0)
Формат : MPEG Video
Версия формата : Version 2
Профиль формата : Main@Main
Параметр BVOP формата : Да
Параметр матрицы формата : Выборочная
Параметр GOP формата : M=3, N=12
Продолжительность : 26 м.
Вид битрейта : Переменный
Битрейт : 2376 Кбит/сек
Максимальный битрейт : 10000 Кбит/сек
Ширина : 720 пикселей
Высота : 576 пикселей
Соотношение сторон : 4:3
Частота кадров : 25,000 кадров/сек
Стандарт вещания : PAL
Цветовое пространство : YUV
Субдискретизация насыщенности : 4:2:0
Битовая глубина : 8 бит
Тип развёртки : Чересстрочная
Порядок развёртки : Верхнее поле первое
Метод сжатия : С потерями
Бит/(Пиксели*Кадры) : 0.229
Временной код первого кадра : 00:00:00:00
Оригинал временного кода : Group of pictures header
Размер потока : 446 Мбайт (91%)
Аудио
Идентификатор : 192 (0xC0)
Формат : MPEG Audio
Версия формата : Version 1
Профиль формата : Layer 2
Продолжительность : 26 м.
Вид битрейта : Постоянный
Битрейт : 192 Кбит/сек
Каналы : 2 канала
Частота : 48,0 КГц
Метод сжатия : С потерями
Задержка видео : 11 мс.
Размер потока : 36,1 Мбайт (7%)

Скриншоты

Запись потока *.ts произведена тюнером цифрового телевидения. В связи с тем, что не все плееры воспроизводят поток *.ts (MPEG-TS) , в данном видеофайле мной был сделан ремукс потока *.ts (MPEG-TS) в *.mpg (MPEG-PS) программой VideoReDo.
[teatrix.ru].t20639.torrent 
Торрент: Зарегистрирован [ 2016-03-20 00:18 ] · 3FC34E25EFD529800BB6D972EE9888D48DAB5123

Скачать .torrent

Скачать

20 KB

Статус: проверено
Скачан: 0 раз
Размер: 492 MB
terms.php



Быстрый ответ

Имя:

      
Для отправки сообщений необходимо включить JavaScript
Показать сообщения:    

Текущее время: 05-Дек 15:30

Часовой пояс: UTC + 3


Вы можете начинать темы
Вы можете отвечать на сообщения
Вы не можете редактировать свои сообщения
Вы не можете удалять свои сообщения
Вы не можете голосовать в опросах
Вы не можете прикреплять файлы к сообщениям
Вы можете скачивать файлы