Леонид Енгибаров. Клоун с осенью в сердце [1986, Документальный, DVB]


Статистика раздачи [Обновить пиров]
Размер:  1.74 GB   |    Зарегистрирован:  8 месяцев 18 дней   |    Скачан:  1 раз

Полного источника не было: 3 месяца 25 дней

 
   
 
 
 

[Цитировать]

Клоун с осенью в сердце- Год выпуска: 1986
Страна: СССР
Жанр: документальный
Продолжительность: 00:48:28
Перевод: не требуется-Описание: Программа из телевизионного цикла Игоря Кио "Все клоуны", выходившего на ЦТ СССР. Этот выпуск посвящен клоуну Леониду Енгибарову.
В программе принимают участие: Леонид Ярмольник, Эммануил Виторган, квартет "Сердца четырех", Михаил Боярский, Валерий Леонтьев, ансамбль "Земляне", группа Стаса Намина.
Автор сценария и ведущий - Игорь Кио.-Доп. информация: Использованы фрагменты фильмов "Леонид Енгибаров, знакомьтесь", "Путь на арену".-Качество: DVB
Формат: MPEG-PS
Видео: MPEG2, 720x576@768x576 (4:3), 25 fps, 4844 Kbps
Аудио: MP2, 48 KHz, 2 ch, 192 Kbps-

MediaInfo

General
Complete name : C:\Клоун с осенью в сердце (1986) [DVB].mpg
Format : MPEG-PS
File size : 1.74 GiB
Duration : 48mn 27s
Overall bit rate mode : Variable
Overall bit rate : 5 138 Kbps
Video
ID : 224 (0xE0)
Format : MPEG Video
Format version : Version 2
Format profile : Main@Main
Format settings, BVOP : Yes
Format settings, Matrix : Custom
Format settings, GOP : M=3, N=36
Format settings, picture st : Frame
Duration : 48mn 27s
Bit rate mode : Variable
Bit rate : 4 844 Kbps
Maximum bit rate : 15.0 Mbps
Width : 720 pixels
Height : 576 pixels
Display aspect ratio : 4:3
Frame rate : 25.000 fps
Standard : PAL
Color space : YUV
Chroma subsampling : 4:2:0
Bit depth : 8 bits
Scan type : Interlaced
Scan order : Top Field First
Compression mode : Lossy
Bits/(Pixel*Frame) : 0.467
Time code of first frame : 00:00:00:00
Time code source : Group of pictures header
GOP, Open/Closed : Open
Stream size : 1.64 GiB (94%)
Audio
ID : 192 (0xC0)
Format : MPEG Audio
Format version : Version 1
Format profile : Layer 2
Duration : 48mn 27s
Bit rate mode : Constant
Bit rate : 192 Kbps
Channel(s) : 2 channels
Sampling rate : 48.0 KHz
Compression mode : Lossy
Delay relative to video : -40ms
Stream size : 66.6 MiB (4%)
[teatrix.ru].t20641.torrent 
Торрент: Зарегистрирован [ 2016-03-20 00:18 ] · 8D77557FCB18E6DB80647BE4BF59CD26E5874E5F

Скачать .torrent

Скачать

18 KB

Статус: проверено
Скачан: 1 раз
Размер: 1.74 GB
terms.php



Быстрый ответ

Имя:

      
Для отправки сообщений необходимо включить JavaScript
Показать сообщения:    

Текущее время: 07-Дек 13:41

Часовой пояс: UTC + 3


Вы можете начинать темы
Вы можете отвечать на сообщения
Вы не можете редактировать свои сообщения
Вы не можете удалять свои сообщения
Вы не можете голосовать в опросах
Вы не можете прикреплять файлы к сообщениям
Вы можете скачивать файлы