[TR24][OF] Maria Callas - La renaissance d'une voix (Giuseppe Verdi, Giacomo Puccini, Vincenzo Bellini, Georges Bizet, Francesco Cilea, Charles Gounod) - 2014 (Opera, Vocal)


Статистика раздачи [Обновить пиров]
Размер:  3.17 GB   |    Зарегистрирован:  8 месяцев 18 дней   |    Скачан:  2 раза

Полного источника не было: 14 дней

 
   
 
 
 

[Цитировать]

Maria Callas - La renaissance d'une voix
Формат записи/Источник записи: [TR24][OF]
Наличие водяных знаков: Нет
Год издания/переиздания диска: 2014
Жанр: Opera, Vocal
Издатель(лейбл): Warner Classics
Продолжительность: 03:33:26
Источник : qobuz
Контейнер: FLAC (*.flac)
Тип рипа: tracks
Разрядность: 24/96
Количество каналов: 2.0
Исполнители:
Maria Callas, soprano,
Tullio Serafin, Conductor (tracks 1-4, 13-14, 20-22, 24-28, 31-38),
Herbert von Karajan, Conductor (tracks 10, 23),
Antonino Votto, Conductor (track 19),
Orchestra del Teatro alla Scala di Milano,
Philharmonia Orchestra della Rai,
Gabriele Santini, Conductor (tracks 6-9),
Orchestra Sinfonica della Rai,
Georges Prêtre, Conductor (tracks 11-12, 17-18, 29, 30, 39-46),
Orchestre de l'Opera National de Paris,
Giuseppe Di Stefano, Tenor, Manuel Spatafora, Baritone, Nicola Zaccaria, Tenor, Rolando Panerai, Baritone (track 19).
Звукозаписывающий лейбл Warner Music презентовал превосходный подарок всем поклонникам творчества Каллас - компиляционный сборник широко известных арий из сигнатурных репертуарных партий греческой исполнительницы. Будучи искренней, я не могу причислить себя к сонму почитателей ее творчества, но сей релиз, великодушно подаренный уважаемым sddd, вполне достоин украсить коллекцию трекера.

Треклист

1. Vincenzo Bellini - Norma, Act 1: "Casta diva" (Norma, Chorus) 00:05:40
Giacomo Puccini:
2 La bohème, Act 1: "Sì. Mi chiamano Mimì" (Mimì) 00:04:49
3 La bohème, Act 3: "Donde lieta uscì" (Mimì) 00:03:19
4 Suor Angelica, 'Sister Angelica': "Senza mamma" (Sister Angelica) 00:05:33
5 Gianni Schicchi, Act 1: "O mio babbino caro" (Lauretta) 00:02:34
Giuseppe Verdi:
6 La traviata, Act 1: "E strano! E strano!" (Violetta) 00:01:20
7 La traviata, Act 1: "Ah fors'e lui" (Violetta) 00:03:00
8 La traviata, Act 1: "Sempre libera" (Violetta, Alfredo) 00:04:01
9 La traviata, Act 3: "Addio, del passato" (Violetta) 00:03:26
10 Il trovatore, Act 4: "D'amor sull'ali rosee" (Leonora) 00:04:02
11 Georges Bizet - Carmen, Act 1: "L'amour est un oiseau rebelle" (Carmen, Chorus) [Habanera] 00:04:18
12 Jules Massenet - Werther, Act 3: "Werther! Qui m'aurait dit la place... Des cris joyeux" (Charlotte - Air des lettres) 00:07:05
Gaetano Donizetti:
13 Lucia di Lammermoor, Act 1: "Regnava nel silenzio alta la notte e bruna" (Lucia, Alisa) 00:04:05
14 Lucia di Lammermoor, Act 1: "Quando rapito in estasi" (Lucia, Alisa) 00:03:59
Gioachino Rossini:
15 La cenerentola, Act 2: "Nacqui all'affanno e al pianto.....Non più mesta" (Angelina) 00:06:19
16 Il barbiere di Siviglia, Act 1: "Una voce poco fa" (Rosina) 00:06:19
Giacomo Puccini:
17 Tosca, Act 2: "Vissi d'arte" (Tosca) 00:03:00
18 Tosca, Act 3: "Com'è lunga l'attesa!" (Tosca) 00:02:31
19 La bohème, Act 1: "O soave fanciulla" (Schaunard, Colline, Marcello, Rodolfo, Mimì) 00:04:08
20 Turandot, Act 1: "Signore, ascolta!" (Turandot) 00:02:29
21 Turandot, Act 2: "In questa reggia" (Turandot) 00:06:24
22 Turandot, Act 3: "Tu, che di gel sei cinta" (Turandot) 00:02:45
23 Madama Butterfly, Act 2: "Un bel di vedremo" (Butterfly) 00:04:43
24 Vincenzo Bellini - La sonnambula, Act 1: "Compagne, temiri amici ....Come per me sereno" (Amina) 00:05:47
25 Giacomo Meyerbeer - Dinorah, '(Le) pardon de Ploërmel', Act 2: "Ombre légère" (Dinorah- Shadow Song) - Sung in Italian 00:05:41
Giuseppe Verdi:
26 I vespri Siciliani, Act 5: "Mercè, dilette amiche" (Elena) 00:03:59
27 Aida, Act 1: "Ritorna vincitor" (Aida) 00:07:07
28 Leo Delibes - Lakmé, Act 2: "Où va la jeune indoue" (Lakmé - Bell Song) 00:08:05
29 Gustave Charpentier - Louise, Act 3: "Depuis le jour où je me suis donnée" (Louise) 00:04:45
30 Charles Gounod - Faust, Act 3: "Il était un Roi de Thulé...O Dieu!que de bijoux...Ah! je ris" (Marguerite - Jewel Song) 00:11:36
31 Alfredo Catalani - La Wally, Act 1: "Ebben?...Ne andrò lontana" (Wally) 00:04:50
Giuseppe Verdi:
32 Rigoletto, Act 1: "Gualtier Maldè ...Caro nome" (Gilda, Borsa, Ceprano, Marullo) 00:07:26
33 La forza del destino, Act 2: "Sono giunta! Grazie o Dio!" (Leonora, Chorus) 00:01:40
34 La forza del destino, Act 2: "Madre, pietosa Vergine" (Leonora, Chorus) 00:05:12
35 Macbeth, Act 2: "La luce langue" (Lady Macbeth) 00:04:11
Francesco Cilea:
36 Adriana Lecouvreur, Act 1: "Ecco: respiro appena...Io son l'umile ancella" (Adriana Lecouvreur) 00:03:49
37 Adriana Lecouvreur, Act 4: "Poveri fiori" (Adriana Lecouvreur) 00:03:12
38 Umberto Giordano - Andrea Chénier, Act 3: "La mamma morta" (Maddalena) 00:04:52
C. W. Gluck:
39. Alceste, Act 1: "Divinités du Styx" (Alceste) 00:04:26
40 Orphée et Eurydice, Act 4: "J'ai perdu mon Eurydice" (Orfeo) 00:04:28
Georges Bizet:
41 Carmen, Act 1: "Près des remparts de Séville" (Carmen, José) 00:04:32
42 Carmen, Act 2: "Les tringles des sistres tintaient" (Camen, Frasquita, Mercédès) 00:04:17
43 Jules Massenet - Manon, Act 2: "Je ne suis que faiblesse....Adieu, notre petite table" (Manon) 00:03:23
Camille Saint-Saëns:
44 Samson et Dalila, Act 1: "Printemps qui commence" (Dalila) 00:05:18
45 Samson et Dalila, Act 2: "Mon coeur s'ouvre à ta voix" (Dalila) 00:05:20
46 Charles Gounod - Roméo et Juliette, Act 1: "Je veux vivre" (Juliet) [Waltz] 00:03:41

Dynamic Range Meter

foobar2000 1.3.6 / Замер динамического диапазона (DR) 1.1.1
Дата отчёта: 2015-08-03 19:25:13
--------------------------------------------------------------------------------
Анализ: Maria Callas, Main Artist, Soprano Vocals - Gabriele Santini, Conductor, Featured Artist - Orchestra Sinfonica della Rai, Featured Artist, Orchestra - Giuseppe Verdi, Composer / Maria Callas: La renaissance d'une voix
--------------------------------------------------------------------------------
DR Пики RMS Продолжительность трека
--------------------------------------------------------------------------------
DR9 -1.99 дБ -16.92 дБ 5:40 01-Norma, Act 1: "Casta diva" (Norma, Chorus)
DR11 -1.58 дБ -20.40 дБ 4:49 02-La bohème, Act 1: "Sì. Mi chiamano Mimì" (Mimì)
DR12 -2.67 дБ -21.58 дБ 3:20 03-La bohème, Act 3: "Donde lieta uscì" (Mimì)
DR12 -2.79 дБ -20.08 дБ 5:33 04-Suor Angelica, 'Sister Angelica': "Senza mamma" (Sister Angelica)
DR11 -4.06 дБ -20.06 дБ 2:35 05-Gianni Schicchi, Act 1: "O mio babbino caro" (Lauretta)
DR9 -6.62 дБ -20.64 дБ 1:20 06-La traviata, Act 1: "E strano! E strano!" (Violetta)
DR8 -6.08 дБ -19.73 дБ 3:01 07-La traviata, Act 1: "Ah fors'e lui" (Violetta)
DR8 -4.51 дБ -17.41 дБ 4:02 08-La traviata, Act 1: "Sempre libera" (Violetta, Alfredo)
DR10 -4.20 дБ -20.37 дБ 3:27 09-La traviata, Act 3: "Addio, del passato" (Violetta)
DR9 -3.02 дБ -18.45 дБ 4:02 10-Il trovatore, Act 4: "D'amor sull'ali rosee" (Leonora)
DR12 -2.53 дБ -21.26 дБ 4:18 11-Carmen, Act 1: "L'amour est un oiseau rebelle" (Carmen, Chorus) [Habanera]
DR10 -0.11 дБ -17.53 дБ 7:06 12-Werther, Act 3: "Werther! Qui m'aurait dit la place... Des cris joyeux" (Charlotte - Air des lettres)
DR9 -2.56 дБ -16.32 дБ 4:06 13-Lucia di Lammermoor, Act 1: "Regnava nel silenzio alta la notte e bruna" (Lucia, Alisa)
DR8 -2.26 дБ -15.79 дБ 4:00 14-Lucia di Lammermoor, Act 1: "Quando rapito in estasi" (Lucia, Alisa)
DR12 -1.02 дБ -18.25 дБ 6:20 15-La cenerentola, Act 2: "Nacqui all'affanno e al pianto.....Non più mesta" (Angelina)
DR12 -1.64 дБ -20.75 дБ 6:20 16-Il barbiere di Siviglia, Act 1: "Una voce poco fa" (Rosina)
DR10 -2.16 дБ -17.27 дБ 3:00 17-Tosca, Act 2: "Vissi d'arte" (Tosca)
DR11 -1.70 дБ -17.60 дБ 2:31 18-Tosca, Act 3: "Com'è lunga l'attesa!" (Tosca)
DR10 -1.64 дБ -17.87 дБ 4:08 19-La bohème, Act 1: "O soave fanciulla" (Schaunard, Colline, Marcello, Rodolfo, Mimì)
DR9 -2.50 дБ -16.77 дБ 2:29 20-Turandot, Act 1: "Signore, ascolta!" (Turandot)
DR10 -0.17 дБ -15.36 дБ 6:24 21-Turandot, Act 2: "In questa reggia" (Turandot)
DR11 -0.83 дБ -17.27 дБ 2:45 22-Turandot, Act 3: "Tu, che di gel sei cinta" (Turandot)
DR8 -1.33 дБ -14.44 дБ 4:44 23-Madama Butterfly, Act 2: "Un bel di vedremo" (Butterfly)
DR9 -1.28 дБ -15.68 дБ 5:48 24-La sonnambula, Act 1: "Compagne, temiri amici ....Come per me sereno" (Amina)
DR13 -0.83 дБ -19.21 дБ 5:41 25-Dinorah, '(Le) pardon de Ploërmel', Act 2: "Ombre légère" (Dinorah- Shadow Song) - Sung in Italian
DR10 -0.82 дБ -16.88 дБ 4:00 26-I vespri Siciliani, Act 5: "Mercè, dilette amiche" (Elena)
DR12 -0.21 дБ -18.46 дБ 7:08 27-Aida, Act 1: "Ritorna vincitor" (Aida)
DR14 -0.61 дБ -20.17 дБ 8:05 28-Lakmé, Act 2: "Où va la jeune indoue" (Lakmé - Bell Song)
DR10 -1.08 дБ -16.98 дБ 4:45 29-Louise, Act 3: "Depuis le jour où je me suis donnée" (Louise)
DR11 -0.93 дБ -17.90 дБ 11:36 30-Faust, Act 3: "Il était un Roi de Thulé...O Dieu!que de bijoux...Ah! je ris" (Marguerite - Jewel Song)
DR9 -1.49 дБ -16.35 дБ 4:51 31-La Wally, Act 1: "Ebben?...Ne andrò lontana" (Wally)
DR9 -4.47 дБ -19.43 дБ 7:27 32-Rigoletto, Act 1: "Gualtier Maldè ...Caro nome" (Gilda, Borsa, Ceprano, Marullo)
DR11 -1.80 дБ -18.61 дБ 1:41 33-La forza del destino, Act 2: "Sono giunta! Grazie o Dio!" (Leonora, Chorus)
DR11 -3.34 дБ -20.27 дБ 5:12 34-La forza del destino, Act 2: "Madre, pietosa Vergine" (Leonora, Chorus)
DR9 -1.37 дБ -15.48 дБ 4:11 35-Macbeth, Act 2: "La luce langue" (Lady Macbeth)
DR12 -1.97 дБ -20.13 дБ 3:50 36-Adriana Lecouvreur, Act 1: "Ecco: respiro appena...Io son l'umile ancella" (Adriana Lecouvreur)
DR8 -1.71 дБ -17.24 дБ 3:12 37-Adriana Lecouvreur, Act 4: "Poveri fiori" (Adriana Lecouvreur)
DR10 -0.67 дБ -16.36 дБ 4:53 38-Andrea Chénier, Act 3: "La mamma morta" (Maddalena)
DR11 -1.94 дБ -17.97 дБ 4:27 39-Alceste, Act 1: "Divinités du Styx" (Alceste)
DR11 -4.74 дБ -20.92 дБ 4:28 40-Orphée et Eurydice, Act 4: "J'ai perdu mon Eurydice" (Orfeo)
DR14 -1.84 дБ -23.02 дБ 4:32 41-Carmen, Act 1: "Près des remparts de Séville" (Carmen, José)
DR12 -0.10 дБ -17.84 дБ 4:18 42-Carmen, Act 2: "Les tringles des sistres tintaient" (Camen, Frasquita, Mercédès)
DR11 -0.01 дБ -18.36 дБ 3:23 43-Manon, Act 2: "Je ne suis que faiblesse....Adieu, notre petite table" (Manon)
DR14 -2.74 дБ -22.70 дБ 5:18 44-Samson et Dalila, Act 1: "Printemps qui commence" (Dalila)
DR12 -2.01 дБ -21.25 дБ 5:21 45-Samson et Dalila, Act 2: "Mon coeur s'ouvre à ta voix" (Dalila)
DR11 -1.56 дБ -16.70 дБ 3:41 46-Roméo et Juliette, Act 1: "Je veux vivre" (Juliet) [Waltz]
--------------------------------------------------------------------------------
Количество треков: 46
Реальные значения DR: DR11
Частота: 96000 Гц
Каналов: 2
Разрядность: 24
Битрейт: 2952 кбит/с
Кодек: FLAC
================================================================================
[teatrix.ru].t20643.torrent 
Торрент: Зарегистрирован [ 2016-03-20 00:18 ] · 86B828CC6AD81BD63684EE0B00E123E7190564C7

Скачать .torrent

Скачать

20 KB

Статус: проверено
Скачан: 2 раз
Размер: 3.17 GB
terms.php



Быстрый ответ

Имя:

      
Для отправки сообщений необходимо включить JavaScript
Показать сообщения:    

Текущее время: 07-Дек 13:31

Часовой пояс: UTC + 3


Вы можете начинать темы
Вы можете отвечать на сообщения
Вы не можете редактировать свои сообщения
Вы не можете удалять свои сообщения
Вы не можете голосовать в опросах
Вы не можете прикреплять файлы к сообщениям
Вы можете скачивать файлы