Учимся танцевать Хип-Хоп - сезон 1 [2008, Россия, SATRip]


Статистика раздачи [Обновить пиров]
Размер:  6.72 GB   |    Зарегистрирован:  10 месяцев 1 день   |    Скачан:  0 раз

Полного источника не было: Никогда

 
   
 
 
 

[Цитировать]

Учимся танцевать Хип-Хоп - сезон 1
Хип-хоп с Ильей Вяльцевым - сезон 1 (2008 ?)
Страна: Россия
Год выпуска: 2008
Продолжительность: 16 х 52-53 минуты
Перевод: Не требуется
Язык: Русский
Описание: Занятия хип-хопом с элементами верхнего брейк-данса, регги и латины предполагают серьезную аэробную нагрузку, задействуют все группы мышц. Буквально после нескольких уроков повышается выносливость организма, тело обретает свободу и появляется уверенность в собственных способностях. Занятия ведет известный танцор, хореограф, преподаватель, лучший танцор России 2010 по версии МTV Россия, победитель многочисленных конкурсов Илья Вяльцев. Преподает с 2001 года.
В раздаче только первые 16 уроков первого сезона, не знаю сколько их должно быть всего, наверное 22 как и во втором сезоне. Качество не очень
Хип-хоп с Ильей Вяльцевым - сезон 2
Качество видео: SATRip
Формат видео: MP4
Видео: MPEG4 Video (H264) 720x576 25fps 799kbps
Аудио: AAC 48000Hz stereo 157kbps, 2 ch

MediaInfo

General
Format : MPEG-4
Format profile : Base Media / Version 2
Codec ID : mp42
File size : 364 MiB
Duration : 52mn 59s
Overall bit rate mode : Constant
Overall bit rate : 961 Kbps
Encoded date : UTC 2011-05-31 15:40:02
Tagged date : UTC 2011-05-31 15:40:02
Video
ID : 1
Format : AVC
Format/Info : Advanced Video Codec
Format profile : High@L3.2
Format settings, CABAC : Yes
Format settings, ReFrames : 2 frames
Format settings, GOP : M=3, N=33
Codec ID : avc1
Codec ID/Info : Advanced Video Coding
Duration : 52mn 59s
Bit rate mode : Constant
Bit rate : 800 Kbps
Width : 720 pixels
Height : 576 pixels
Display aspect ratio : 4:3
Frame rate mode : Constant
Frame rate : 25.000 fps
Standard : PAL
Color space : YUV
Chroma subsampling : 4:2:0
Bit depth : 8 bits
Scan type : Progressive
Bits/(Pixel*Frame) : 0.077
Stream size : 303 MiB (83%)
Language : English
Encoded date : UTC 2011-05-31 15:40:02
Tagged date : UTC 2011-05-31 15:40:02
Color primaries : BT.601 PAL
Transfer characteristics : BT.470 System B, BT.470 System G
Matrix coefficients : BT.601
Color range : Limited
Audio
ID : 2
Format : AAC
Format/Info : Advanced Audio Codec
Format profile : LC
Codec ID : 40
Duration : 52mn 59s
Bit rate mode : Constant
Bit rate : 157 Kbps
Nominal bit rate : 4 295 Mbps
Channel(s) : 2 channels
Channel positions : Front: L R
Sampling rate : 48.0 KHz
Compression mode : Lossy
Stream size : 59.7 MiB (16%)

Скриншоты

[teatrix.ru].t20645.torrent 
Торрент: Зарегистрирован [ 2016-03-20 00:22 ] · 4411F803280534484A2B855F8156FE803E7AA225

Скачать .torrent

Скачать

18 KB

Статус: проверено
Скачан: 0 раз
Размер: 6.72 GB
terms.php



Быстрый ответ

Имя:

      
Для отправки сообщений необходимо включить JavaScript
Показать сообщения:    

Текущее время: 21-Янв 11:37

Часовой пояс: UTC + 3


Вы можете начинать темы
Вы можете отвечать на сообщения
Вы не можете редактировать свои сообщения
Вы не можете удалять свои сообщения
Вы не можете голосовать в опросах
Вы не можете прикреплять файлы к сообщениям
Вы можете скачивать файлы