(Vocal) Gustav Mahler - Des Knaben Wunderhorn (H.Rehfuss • M.Forrester • Wiener Symphoniker - F.Prohaska) - 1991/2012, FLAC (tracks+.cue) lossless


 

[Цитировать]

G.Mahler - Des Knaben Wunderhorn
H.RehfussM.ForresterWiener Symphoniker - F.Prohaska
--- Жанр: Vocal
Страна-производитель диска: EU
Год издания диска: 2012
Издатель (лейбл): eOne Music (licensed by Vanguard)
Аудиокодек: FLAC
Тип рипа: image+.cue
Битрейт аудио: lossless
Продолжительность: 52'25''
Источник: собственный рип
Наличие сканов в содержимом раздачи: да
Треклист:
G.Mahler - Des Knaben Wunderhorn:
[01] Revelge
[02] Das iridsche Leben
[03] Lob des hohen Verstandes
[04] Rheinlegendchen
[05] Der Schildwache Nachtlied
[06] Wer hat dies Liedlein erdacht?
[07] Verlor'ne Muh
[08] Der Tamboursg'sell
[09] Trost im Unglück
[10] Wo die schönen Trompeten blasen
[11] Des Antonius von Padua Fischpredigt
[12] Lied des Verfolgtem im Turm
[13] Urlicht
Исполнители:
Maureen Forrester, contralto
Heinz Rehfuss, bass-baritone
Wiener Symphoniker - Felix Prohaska-

Лог создания рипа

Exact Audio Copy V1.0 beta 3 from 29. August 2011
EAC extraction logfile from 21. January 2014, 21:09
Maureen Forrester - Heinz Rehfuss - Felix Prohaska / G.Mahler - Des Knaben Wunderhorn
Used drive : COMPAQ CD-ROM LTN403 Adapter: 0 ID: 0
Read mode : Secure
Utilize accurate stream : Yes
Defeat audio cache : Yes
Make use of C2 pointers : No
Read offset correction : -1164
Overread into Lead-In and Lead-Out : Yes
Fill up missing offset samples with silence : Yes
Delete leading and trailing silent blocks : No
Null samples used in CRC calculations : Yes
Used interface : Native Win32 interface for Win NT & 2000
Used output format : User Defined Encoder
Selected bitrate : 896 kBit/s
Quality : High
Add ID3 tag : No
Command line compressor : C:\Program Files\FLAC\flac.exe
Additional command line options : -T "COMMENT=rip by el coronel" -8 -V %source%
TOC of the extracted CD
Track | Start | Length | Start sector | End sector
---------------------------------------------------------
1 | 0:00.00 | 6:25.00 | 0 | 28874
2 | 6:25.00 | 3:05.00 | 28875 | 42749
3 | 9:30.00 | 2:27.00 | 42750 | 53774
4 | 11:57.00 | 3:15.37 | 53775 | 68436
5 | 15:12.37 | 5:34.00 | 68437 | 93486
6 | 20:46.37 | 2:12.00 | 93487 | 103386
7 | 22:58.37 | 2:32.38 | 103387 | 114824
8 | 25:31.00 | 5:13.00 | 114825 | 138299
9 | 30:44.00 | 2:27.60 | 138300 | 149384
10 | 33:11.60 | 5:58.07 | 149385 | 176241
11 | 39:09.67 | 4:12.08 | 176242 | 195149
12 | 43:22.00 | 3:55.37 | 195150 | 212811
13 | 47:17.37 | 5:07.60 | 212812 | 235896
Range status and errors
Selected range
Filename D:\G.Mahler - Des Knaben Wunderhorn (Forrester - Rehfuss - Prohaska).wav
Peak level 100.0 %
Extraction speed 3.0 X
Range quality 99.9 %
Test CRC 4929C286
Copy CRC 4929C286
Copy OK
No errors occurred
AccurateRip summary
Track 1 not present in database
Track 2 not present in database
Track 3 not present in database
Track 4 not present in database
Track 5 not present in database
Track 6 not present in database
Track 7 not present in database
Track 8 not present in database
Track 9 not present in database
Track 10 not present in database
Track 11 not present in database
Track 12 not present in database
Track 13 not present in database
None of the tracks are present in the AccurateRip database
End of status report
==== Log checksum C92E042780379A377F81D55CC86508236931CCF72E9C0B1B83219D8202326F65 ====

Содержание индексной карты (.CUE)

REM GENRE Classical
REM DATE 2012
REM DISCID BE0C490D
REM COMMENT "ExactAudioCopy v1.0b3"
PERFORMER "Maureen Forrester - Heinz Rehfuss - Felix Prohaska"
TITLE "G.Mahler - Des Knaben Wunderhorn"
FILE "G.Mahler - Des Knaben Wunderhorn (Forrester - Rehfuss - Prohaska).flac" WAVE
TRACK 01 AUDIO
TITLE "Revelge"
PERFORMER "Maureen Forrester - Heinz Rehfuss - Felix Prohaska"
INDEX 01 00:00:00
TRACK 02 AUDIO
TITLE "Das iridsche Leben"
PERFORMER "Maureen Forrester - Heinz Rehfuss - Felix Prohaska"
INDEX 01 06:25:00
TRACK 03 AUDIO
TITLE "Lob des hohen Verstandes"
PERFORMER "Maureen Forrester - Heinz Rehfuss - Felix Prohaska"
INDEX 01 09:30:00
TRACK 04 AUDIO
TITLE "Rheinlegendchen"
PERFORMER "Maureen Forrester - Heinz Rehfuss - Felix Prohaska"
INDEX 01 11:57:00
TRACK 05 AUDIO
TITLE "Der Schildwache Nachtlied"
PERFORMER "Maureen Forrester - Heinz Rehfuss - Felix Prohaska"
INDEX 01 15:12:37
TRACK 06 AUDIO
TITLE "Wer hat dies Liedlein erdacht?"
PERFORMER "Maureen Forrester - Heinz Rehfuss - Felix Prohaska"
INDEX 01 20:46:37
TRACK 07 AUDIO
TITLE "Verlor'ne Muh"
PERFORMER "Maureen Forrester - Heinz Rehfuss - Felix Prohaska"
INDEX 01 22:58:37
TRACK 08 AUDIO
TITLE "Der Tamboursg'sell"
PERFORMER "Maureen Forrester - Heinz Rehfuss - Felix Prohaska"
INDEX 01 25:31:00
TRACK 09 AUDIO
TITLE "Trost im Ungluck"
PERFORMER "Maureen Forrester - Heinz Rehfuss - Felix Prohaska"
INDEX 01 30:44:00
TRACK 10 AUDIO
TITLE "Wo die schonen Trompeten blasen"
PERFORMER "Maureen Forrester - Heinz Rehfuss - Felix Prohaska"
INDEX 01 33:11:60
TRACK 11 AUDIO
TITLE "Des Antonius von Padua Fischpredigt"
PERFORMER "Maureen Forrester - Heinz Rehfuss - Felix Prohaska"
INDEX 01 39:09:67
TRACK 12 AUDIO
TITLE "Lied des Verfolgtem im Turm"
PERFORMER "Maureen Forrester - Heinz Rehfuss - Felix Prohaska"
INDEX 01 43:22:00
TRACK 13 AUDIO
TITLE "Urlicht"
PERFORMER "Maureen Forrester - Heinz Rehfuss - Felix Prohaska"
INDEX 01 47:17:37
-Доп. информация: Просто-напросто гениальное исполнение "Волшебного рога мальчика".-



Показать сообщения:    

Текущее время: 19-Янв 22:16

Часовой пояс: UTC + 3


Вы не можете начинать темы
Вы не можете отвечать на сообщения
Вы не можете редактировать свои сообщения
Вы не можете удалять свои сообщения
Вы не можете голосовать в опросах
Вы не можете прикреплять файлы к сообщениям
Вы не можете скачивать файлы