(Opera) Wagner - Der Ring des Nibelungen (Ludwig, Haggander, Svenden, Norman, Behrens, Battle, Studer, Morris, Lorenz, Jerusalem, Baker, Moll, Zednik ect., James Levine) - 2002, FLAC (image+.cue), lossless


 

[Цитировать]

Wagner - Der Ring des Nibelungen - Levine
Жанр: Opera
Страна-производитель диска: E.U.
Год издания диска: 2002
Издатель (лейбл): Deutsche Grammophon
Номер по каталогу: 471 678-2
Дата записи: 1987-1989
Аудиокодек: FLAC
Тип рипа: image+.cue
Битрейт аудио: lossless
Продолжительность: 900.02
Источник: собственный рип
Наличие сканов в содержимом раздачи: да

Das Rheingold:CD1:Треклист:

01. Vorspiel
02. Weia ! Waga! Woge, Du Welle!
03. Lugt, Schwestern ! Die Weckerin Lacht In Den Grund
04. Der Welt Erbe Gewann Ich Zu Eigen Durch Dich?
05. Wotan! Gemahl! Erwache!
06. Sanft Schloss Schlaf Dein Aug
07. Endlich Loge!
08. Immer Ist Undank Loges Lohn!
09. Dirs Zu Melden Gelobt Ich Den Madchen
10. Uber Stock Und Stein Zu Tal
11. Wotan, Gemahl, Unsel Ger Mann!
12. Hehe! Hehe! Heiher! Heiher! Tuckischer Zwerg!
Total 78.10

Лог создания рипа:

Exact Audio Copy V1.0 beta 3 from 29. August 2011
Отчёт EAC об извлечении, выполненном 15. января 2015, 22:11
Richard Wagner / Das Rheingold - CD1
Дисковод: Optiarc DVD RW AD-7260S Adapter: 0 ID: 1
Режим чтения : Достоверность
Использование точного потока : Да
Отключение кэша аудио : Да
Использование указателей C2 : Нет
Коррекция смещения при чтении : 48
Способность читать области Lead-in и Lead-out : Нет
Заполнение пропущенных сэмплов тишиной : Да
Удаление блоков с тишиной в начале и конце : Нет
При вычислениях CRC использовались нулевые сэмплы : Да
Интерфейс : Встроенный Win32-интерфейс для Win NT/2000
Выходной формат : Пользовательский кодировщик
Выбранный битрейт : 896 kBit/s
Качество : Высокий
Добавление ID3-тега : Нет
Утилита сжатия : C:\Program Files\FLAC Frontend\tools\flac.exe
Дополнительные параметры : -V -8 -T "Date=%year%" -T "Genre=%genre%" %source%
TOC извлечённого CD
Трек | Старт | Длительность | Начальный сектор | Конечный сектор
---------------------------------------------------------------------
1 | 0:00.00 | 4:49.43 | 0 | 21717
2 | 4:49.43 | 10:47.07 | 21718 | 70249
3 | 15:36.50 | 6:24.05 | 70250 | 99054
4 | 22:00.55 | 4:42.25 | 99055 | 120229
5 | 26:43.05 | 10:37.23 | 120230 | 168027
6 | 37:20.28 | 9:38.30 | 168028 | 211407
7 | 46:58.58 | 3:54.60 | 211408 | 229017
8 | 50:53.43 | 4:23.72 | 229018 | 248814
9 | 55:17.40 | 9:11.60 | 248815 | 290199
10 | 64:29.25 | 5:30.03 | 290200 | 314952
11 | 69:59.28 | 5:17.57 | 314953 | 338784
12 | 75:17.10 | 2:52.65 | 338785 | 351749
Характеристики диапазона извлечения и сообщения об ошибках
Выбранный диапазон
Имя файла D:\EAC\Richard Wagner\Richard Wagner - Das Rheingold - CD1.wav
Пиковый уровень 98.4 %
Скорость извлечения 4.6 X
Качество диапазона 100.0 %
CRC теста D167335B
CRC копии D167335B
Копирование... OK
Ошибок не произошло
AccurateRip: сводка
Трек 1 : извлечено точно (доверие 21) [AFCDD611] (AR v2)
Трек 2 : извлечено точно (доверие 22) [9CE08C4E] (AR v2)
Трек 3 : извлечено точно (доверие 22) [FB44429D] (AR v2)
Трек 4 : извлечено точно (доверие 22) [5E983DC2] (AR v2)
Трек 5 : извлечено точно (доверие 21) [3C085FC7] (AR v2)
Трек 6 : извлечено точно (доверие 21) [AE487C0A] (AR v2)
Трек 7 : извлечено точно (доверие 22) [158AD046] (AR v2)
Трек 8 : извлечено точно (доверие 22) [32DC2CCA] (AR v2)
Трек 9 : извлечено точно (доверие 22) [E5649C4D] (AR v2)
Трек 10 : извлечено точно (доверие 22) [B76C0544] (AR v2)
Трек 11 : извлечено точно (доверие 22) [8F02D0F4] (AR v2)
Трек 12 : извлечено точно (доверие 23) [178532D3] (AR v2)
Все треки извлечены точно
Конец отчёта
==== Контрольная сумма отчёта E857B3A2A72AB7F423B16EE069893C742CA4FAE846BC0D72EC030242DE9BDE7F ====

CD2:Треклист:

01. Nibelheim hier
02. Wer Halfe Mir?
03. Was Wollt Ihr Hier?
04. Auf Wonnigen Hohn
05. Ohe! Ohe! Schreckliche Schlange
06. Da Vetter Sitze Du Fest!
07. Gezahlt Hab Ich: Nun Lasst Mich Ziehn!
08. Bin Ich Nun Frei?
09. Fasolt Und Fafner Nahen Von Fern
10. Freia, Die Schone, Schau Ich Nicht Mehr
11. Weiche, Wotan, Weiche!
12. Halt, Du Gieriger
13. Schwules Gedunst Schwebt In Der Luft
14. Abendlich Strahlt Der Sonne Auge
15. Rheingold! Rheingold! Reines Gold!
Total 78.43

Лог создания рипа:

Exact Audio Copy V1.0 beta 3 from 29. August 2011
Отчёт EAC об извлечении, выполненном 15. января 2015, 22:55
Richard Wagner / Das Rheingold - CD2
Дисковод: Optiarc DVD RW AD-7260S Adapter: 0 ID: 1
Режим чтения : Достоверность
Использование точного потока : Да
Отключение кэша аудио : Да
Использование указателей C2 : Нет
Коррекция смещения при чтении : 48
Способность читать области Lead-in и Lead-out : Нет
Заполнение пропущенных сэмплов тишиной : Да
Удаление блоков с тишиной в начале и конце : Нет
При вычислениях CRC использовались нулевые сэмплы : Да
Интерфейс : Встроенный Win32-интерфейс для Win NT/2000
Выходной формат : Пользовательский кодировщик
Выбранный битрейт : 896 kBit/s
Качество : Высокий
Добавление ID3-тега : Нет
Утилита сжатия : C:\Program Files\FLAC Frontend\tools\flac.exe
Дополнительные параметры : -V -8 -T "Date=%year%" -T "Genre=%genre%" %source%
TOC извлечённого CD
Трек | Старт | Длительность | Начальный сектор | Конечный сектор
---------------------------------------------------------------------
1 | 0:00.32 | 1:27.73 | 32 | 6629
2 | 1:28.30 | 6:47.57 | 6630 | 37211
3 | 8:16.12 | 4:26.73 | 37212 | 57234
4 | 12:43.10 | 6:19.52 | 57235 | 85711
5 | 19:02.62 | 7:20.23 | 85712 | 118734
6 | 26:23.10 | 5:34.50 | 118735 | 143834
7 | 31:57.60 | 6:06.69 | 143835 | 171353
8 | 38:04.54 | 4:14.53 | 171354 | 190456
9 | 42:19.32 | 8:31.18 | 190457 | 228799
10 | 50:50.50 | 2:53.65 | 228800 | 241839
11 | 53:44.40 | 8:00.45 | 241840 | 277884
12 | 61:45.10 | 4:44.72 | 277885 | 299256
13 | 66:30.07 | 4:27.50 | 299257 | 319331
14 | 70:57.57 | 4:12.38 | 319332 | 338269
15 | 75:10.20 | 3:33.12 | 338270 | 354256
Характеристики диапазона извлечения и сообщения об ошибках
Выбранный диапазон
Имя файла D:\EAC\Wagner - Der Ring des Nibelungen - Levine\CD2\Richard Wagner - Das Rheingold - CD2.wav
Пиковый уровень 98.5 %
Скорость извлечения 4.6 X
Качество диапазона 100.0 %
CRC теста 240081C2
CRC копии 240081C2
Копирование... OK
Ошибок не произошло
AccurateRip: сводка
Трек 1 : извлечено точно (доверие 21) [38E50FDD] (AR v2)
Трек 2 : извлечено точно (доверие 21) [FA5E7406] (AR v2)
Трек 3 : извлечено точно (доверие 21) [8DAD62CF] (AR v2)
Трек 4 : извлечено точно (доверие 21) [027C3939] (AR v2)
Трек 5 : извлечено точно (доверие 21) [3F66E962] (AR v2)
Трек 6 : извлечено точно (доверие 21) [6F5A324B] (AR v2)
Трек 7 : извлечено точно (доверие 21) [6E4B4C2D] (AR v2)
Трек 8 : извлечено точно (доверие 21) [3EE92D79] (AR v2)
Трек 9 : извлечено точно (доверие 21) [25F716D0] (AR v2)
Трек 10 : извлечено точно (доверие 20) [FBE4C23C] (AR v2)
Трек 11 : извлечено точно (доверие 21) [A1200914] (AR v2)
Трек 12 : извлечено точно (доверие 21) [A1B317C7] (AR v2)
Трек 13 : извлечено точно (доверие 21) [9F791834] (AR v2)
Трек 14 : извлечено точно (доверие 21) [62693ACA] (AR v2)
Трек 15 : извлечено точно (доверие 21) [FFE17FCF] (AR v2)
Все треки извлечены точно
Конец отчёта
==== Контрольная сумма отчёта E86B40DDBA72FD6CFEDF25F3D0872A2527B8101A64631C1FA58FCDA9B2B6AF1E ====

Исполнители:

Wotan - James Morris
Donner - Siegfried Lorenz
Froh - Mark Baker
Loge - Siegfried Jerusalem
Alberich - Ekkehard Wlaschiha
Mime - Heinz Zednik
Fasolt - Kurt Moll
Fafner - Jan-Hendrik Rootering
Fricka - Christa Ludwig
Freia - MarieAnne Häggander
Erda - Birgitta Svendén
Woglinde - Hei-Kyung Hong
Wellgunde - Diane Kesling
Flosshilde - Meredith Parsons
Metropolitan Opera Orchestra and Chorus
James Levine

Die Walküre:CD1:Треклист:

01. Act 1. Vorspiel
02. Act 1. Scene 1. Wes Herd dies auch sei, hier muss ich rasten
03. Act 1. Scene 1. Einen Unseligen labtest du
04. Act 1. Scene 2. Müd am Herd fand ich den Mann
05. Act 1. Scene 2. Friedmund darf ich nicht heissen
06. Act 1. Scene 2. Die so leidig Los dir beschied
07. Act 1. Scene 2. Ich weiss ein wildes Geschlecht
08. Act 1. Scene 3. Ein Schwert verhiess mir der Vater
09. Act 1. Scene 3. Schläfst du, Gast?
10. Act 1. Scene 3. Winterstürme wichen dem Wonnemond
11. Act 1. Scene 3. Du bist der Lenz, nach dem ich verlangte
12. Act 1. Scene 3. O süsseste Wonne! Seligstes Weib!
13. Act 1. Scene 3. Siegmund heiss ich und Siegmund bin ich!
Total 68.06

Лог создания рипа:

Exact Audio Copy V1.0 beta 3 from 29. August 2011
Отчёт EAC об извлечении, выполненном 16. января 2015, 15:25
Richard Wagner / Die Walkure - CD1
Дисковод: Optiarc DVD RW AD-7260S Adapter: 0 ID: 1
Режим чтения : Достоверность
Использование точного потока : Да
Отключение кэша аудио : Да
Использование указателей C2 : Нет
Коррекция смещения при чтении : 48
Способность читать области Lead-in и Lead-out : Нет
Заполнение пропущенных сэмплов тишиной : Да
Удаление блоков с тишиной в начале и конце : Нет
При вычислениях CRC использовались нулевые сэмплы : Да
Интерфейс : Встроенный Win32-интерфейс для Win NT/2000
Выходной формат : Пользовательский кодировщик
Выбранный битрейт : 896 kBit/s
Качество : Высокий
Добавление ID3-тега : Нет
Утилита сжатия : C:\Program Files\FLAC Frontend\tools\flac.exe
Дополнительные параметры : -V -8 -T "Date=%year%" -T "Genre=%genre%" %source%
TOC извлечённого CD
Трек | Старт | Длительность | Начальный сектор | Конечный сектор
---------------------------------------------------------------------
1 | 0:00.32 | 3:42.18 | 32 | 16699
2 | 3:42.50 | 9:15.60 | 16700 | 58384
3 | 12:58.35 | 3:43.22 | 58385 | 75131
4 | 16:41.57 | 5:48.43 | 75132 | 101274
5 | 22:30.25 | 6:05.72 | 101275 | 128721
6 | 28:36.22 | 4:24.10 | 128722 | 148531
7 | 33:00.32 | 6:13.58 | 148532 | 176564
8 | 39:14.15 | 6:40.00 | 176565 | 206564
9 | 45:54.15 | 6:40.20 | 206565 | 236584
10 | 52:34.35 | 3:06.45 | 236585 | 250579
11 | 55:41.05 | 2:02.30 | 250580 | 259759
12 | 57:43.35 | 6:27.40 | 259760 | 288824
13 | 64:11.00 | 3:54.57 | 288825 | 306431
Характеристики диапазона извлечения и сообщения об ошибках
Выбранный диапазон
Имя файла D:\EAC\Wagner - Der Ring des Nibelungen - Levine\CD3\Richard Wagner - Die Walkure - CD1.wav
Пиковый уровень 91.2 %
Скорость извлечения 4.4 X
Качество диапазона 100.0 %
CRC теста 7092206F
CRC копии 7092206F
Копирование... OK
Ошибок не произошло
AccurateRip: сводка
Трек 1 : извлечено точно (доверие 3) [1CA134F8] (AR v2)
Трек 2 : извлечено точно (доверие 3) [5B3FBF64] (AR v2)
Трек 3 : извлечено точно (доверие 3) [6E7E421F] (AR v2)
Трек 4 : извлечено точно (доверие 3) [4B04719B] (AR v2)
Трек 5 : извлечено точно (доверие 3) [453CBFCF] (AR v2)
Трек 6 : извлечено точно (доверие 3) [9E1B3BB8] (AR v2)
Трек 7 : извлечено точно (доверие 3) [6DC9188C] (AR v2)
Трек 8 : извлечено точно (доверие 3) [7504D3A3] (AR v2)
Трек 9 : извлечено точно (доверие 3) [FFA46D00] (AR v2)
Трек 10 : извлечено точно (доверие 3) [7726C2F4] (AR v2)
Трек 11 : извлечено точно (доверие 3) [38CF12EA] (AR v2)
Трек 12 : извлечено точно (доверие 3) [00A5BAB0] (AR v2)
Трек 13 : извлечено точно (доверие 3) [AD12142F] (AR v2)
Все треки извлечены точно
Конец отчёта
==== Контрольная сумма отчёта 5B263D65671C828F3FA334E506AF5C79872A15AFBFD28DAE42D3261CDC82AF4E ====

CD2:Треклист:

01. Act 2. Vorspiel / Scene 1. Nun zäume dein Ross, reisige Maid!
02. Act 2. Scene 1. Hojotoho! Hojotoho!
03. Act 2. Scene 1. Der alte Sturm, die alte Müh'!
04. Act 2. Scene 1. So ist es denn aus mit den ewigen Göttern / Heraus sagt' ich's; traf ich den Sinn?
05. Act 2. Scene 1. Heiaha! Heiaha! Hojotoho!
06. Act 2. Scene 2. Schlimm, fürcht ich, schloss der Streit
07. Act 2. Scene 2. Als junger Liebe Lust mir verblich
08. Act 2. Scene 2. Ein andres ist's: achte es wohl
09. Act 2. Scene 2. So nimmst du von Siegmund den Sieg?
10. Act 2. Scene 2. So nimm meinen Segen, Niblungensohn!
Total 53.39

Лог создания рипа:

Exact Audio Copy V1.0 beta 3 from 29. August 2011
Отчёт EAC об извлечении, выполненном 16. января 2015, 14:42
Richard Wagner / Die Walkure - CD2
Дисковод: Optiarc DVD RW AD-7260S Adapter: 0 ID: 1
Режим чтения : Достоверность
Использование точного потока : Да
Отключение кэша аудио : Да
Использование указателей C2 : Нет
Коррекция смещения при чтении : 48
Способность читать области Lead-in и Lead-out : Нет
Заполнение пропущенных сэмплов тишиной : Да
Удаление блоков с тишиной в начале и конце : Нет
При вычислениях CRC использовались нулевые сэмплы : Да
Интерфейс : Встроенный Win32-интерфейс для Win NT/2000
Выходной формат : Пользовательский кодировщик
Выбранный битрейт : 896 kBit/s
Качество : Высокий
Добавление ID3-тега : Нет
Утилита сжатия : C:\Program Files\FLAC Frontend\tools\flac.exe
Дополнительные параметры : -V -8 -T "Date=%year%" -T "Genre=%genre%" %source%
TOC извлечённого CD
Трек | Старт | Длительность | Начальный сектор | Конечный сектор
---------------------------------------------------------------------
1 | 0:00.32 | 2:29.58 | 32 | 11264
2 | 2:30.15 | 2:10.32 | 11265 | 21046
3 | 4:40.47 | 5:01.10 | 21047 | 43631
4 | 9:41.57 | 12:06.03 | 43632 | 98084
5 | 21:47.60 | 4:05.20 | 98085 | 116479
6 | 25:53.05 | 6:24.00 | 116480 | 145279
7 | 32:17.05 | 5:25.17 | 145280 | 169671
8 | 37:42.22 | 6:22.35 | 169672 | 198356
9 | 44:04.57 | 4:20.15 | 198357 | 217871
10 | 48:24.72 | 5:14.35 | 217872 | 241456
Характеристики диапазона извлечения и сообщения об ошибках
Выбранный диапазон
Имя файла D:\EAC\Wagner - Der Ring des Nibelungen - Levine\CD4\Richard Wagner - Die Walkure - CD2.wav
Пиковый уровень 93.3 %
Скорость извлечения 3.9 X
Качество диапазона 99.9 %
CRC теста 5A00CD69
CRC копии 5A00CD69
Копирование... OK
Ошибок не произошло
AccurateRip: сводка
Трек 1 : извлечено точно (доверие 21) [83A1E3ED] (AR v2)
Трек 2 : извлечено точно (доверие 21) [CE5BB9B7] (AR v2)
Трек 3 : извлечено точно (доверие 21) [B7F78F4B] (AR v2)
Трек 4 : извлечено точно (доверие 21) [59C353E5] (AR v2)
Трек 5 : извлечено точно (доверие 21) [4F817EE7] (AR v2)
Трек 6 : извлечено точно (доверие 21) [4274DCCD] (AR v2)
Трек 7 : извлечено точно (доверие 21) [EE7CB20F] (AR v2)
Трек 8 : извлечено точно (доверие 21) [07DE73B3] (AR v2)
Трек 9 : извлечено точно (доверие 21) [D89A4823] (AR v2)
Трек 10 : извлечено точно (доверие 21) [DF95E76C] (AR v2)
Все треки извлечены точно
Конец отчёта
==== Контрольная сумма отчёта F637D0016AD8BA0A9AFDF084A5C7BB8905B743560DAFC7E8E4D8554B38588FCE ====

CD3:Треклист:

01. Act 2. Scene 2. So sah ich Siegvater nie / Scene 3. Raste nun hier; gönne dir Ruh!
02. Act 2. Scene 3. Hinweg! Hinweg! Flieh die Entweihte!
03. Act 2. Scene 4. Siegmund! Sieh auf mich!
04. Act 2. Scene 4. Erdenluft muss sie noch atmen
05. Act 2. Scene 4. Weh! Weh! Süsstes Weib
06. Act 2. Scene 4. Zwei Leben lachen dir hier
07. Act 2. Scene 5. Zauberfest bezähmt ein Schlaf
08. Act 2. Scene 5. Wehwalt! Wehwalt!
Total 47.32

Лог создания рипа:

Exact Audio Copy V1.0 beta 3 from 29. August 2011
Отчёт EAC об извлечении, выполненном 16. января 2015, 16:07
Richard Wagner / Die Walkure - CD3
Дисковод: Optiarc DVD RW AD-7260S Adapter: 0 ID: 1
Режим чтения : Достоверность
Использование точного потока : Да
Отключение кэша аудио : Да
Использование указателей C2 : Нет
Коррекция смещения при чтении : 48
Способность читать области Lead-in и Lead-out : Нет
Заполнение пропущенных сэмплов тишиной : Да
Удаление блоков с тишиной в начале и конце : Нет
При вычислениях CRC использовались нулевые сэмплы : Да
Интерфейс : Встроенный Win32-интерфейс для Win NT/2000
Выходной формат : Пользовательский кодировщик
Выбранный битрейт : 896 kBit/s
Качество : Высокий
Добавление ID3-тега : Нет
Утилита сжатия : C:\Program Files\FLAC Frontend\tools\flac.exe
Дополнительные параметры : -V -8 -T "Date=%year%" -T "Genre=%genre%" %source%
TOC извлечённого CD
Трек | Старт | Длительность | Начальный сектор | Конечный сектор
---------------------------------------------------------------------
1 | 0:00.00 | 7:21.25 | 0 | 33099
2 | 7:21.25 | 8:08.38 | 33100 | 69737
3 | 15:29.63 | 10:11.39 | 69738 | 115601
4 | 25:41.27 | 4:16.11 | 115602 | 134812
5 | 29:57.38 | 4:10.25 | 134813 | 153587
6 | 34:07.63 | 2:46.10 | 153588 | 166047
7 | 36:53.73 | 5:03.32 | 166048 | 188804
8 | 41:57.30 | 5:34.45 | 188805 | 213899
Характеристики диапазона извлечения и сообщения об ошибках
Выбранный диапазон
Имя файла D:\EAC\Wagner - Der Ring des Nibelungen - Levine\CD5\Richard Wagner - Die Walkure - CD3.wav
Пиковый уровень 93.3 %
Скорость извлечения 3.8 X
Качество диапазона 100.0 %
CRC теста 1D196C71
CRC копии 1D196C71
Копирование... OK
Ошибок не произошло
AccurateRip: сводка
Трек 1 : извлечено точно (доверие 20) [8F097B2D] (AR v2)
Трек 2 : извлечено точно (доверие 20) [27154FBC] (AR v2)
Трек 3 : извлечено точно (доверие 20) [BE9F0634] (AR v2)
Трек 4 : извлечено точно (доверие 20) [30BDE34C] (AR v2)
Трек 5 : извлечено точно (доверие 20) [1DC926B7] (AR v2)
Трек 6 : извлечено точно (доверие 20) [86B9DA3A] (AR v2)
Трек 7 : извлечено точно (доверие 20) [30D8BCC0] (AR v2)
Трек 8 : извлечено точно (доверие 20) [31287842] (AR v2)
Все треки извлечены точно
Конец отчёта
==== Контрольная сумма отчёта 15476578E04A49B57F7A0B478710DF5E310AE2CCCD36FA124D561393E0071854 ====

CD4:Треклист:

01. Act 3. Walkürenritt / Scene 1. Hojotoho! Hojotoho!
02. Act 3. Scene 1. Schützt mich und helft in höchster Not!
03. Act 3. Scene 1. Nicht sehre dich Sorge um mich
04. Act 3. Scene 1. Steh, Brünnhild'! / Scene 2. Wo ist Brünnhild', wo die Verbrecherin?
05. Act 3. Scene 2. Hier bin ich, Vater: gebiete die Strafe!
06. Act 3. Scene 3. War es so schmählich, was ich verbrach
07. Act 3. Scene 3. Deinen leichten Sinn lass dich denn leiten
08. Act 3. Scene 3. Du zeugtest ein edles Geschlecht
09. Act 3. Scene 3. Leb wohl, du kühnes, herrliches Kind!
10. Act 3. Scene 3. Der Augen leuchtendes Paar
11. Act 3. Scene 3. Loge, hör! Lausche hierher!
12. Act 3. Scene 3. Feuerzauber
Total 75.18

Лог создания рипа:

Exact Audio Copy V1.0 beta 3 from 29. August 2011
Отчёт EAC об извлечении, выполненном 16. января 2015, 17:11
Richard Wagner / Die Walkure - CD4
Дисковод: Optiarc DVD RW AD-7260S Adapter: 0 ID: 1
Режим чтения : Достоверность
Использование точного потока : Да
Отключение кэша аудио : Да
Использование указателей C2 : Нет
Коррекция смещения при чтении : 48
Способность читать области Lead-in и Lead-out : Нет
Заполнение пропущенных сэмплов тишиной : Да
Удаление блоков с тишиной в начале и конце : Нет
При вычислениях CRC использовались нулевые сэмплы : Да
Интерфейс : Встроенный Win32-интерфейс для Win NT/2000
Выходной формат : Пользовательский кодировщик
Выбранный битрейт : 896 kBit/s
Качество : Высокий
Добавление ID3-тега : Нет
Утилита сжатия : C:\Program Files\FLAC Frontend\tools\flac.exe
Дополнительные параметры : -V -8 -T "Date=%year%" -T "Genre=%genre%" %source%
TOC извлечённого CD
Трек | Старт | Длительность | Начальный сектор | Конечный сектор
---------------------------------------------------------------------
1 | 0:00.00 | 7:45.28 | 0 | 34902
2 | 7:45.28 | 3:29.12 | 34903 | 50589
3 | 11:14.40 | 6:18.48 | 50590 | 78987
4 | 17:33.13 | 5:51.14 | 78988 | 105326
5 | 23:24.27 | 8:49.11 | 105327 | 145012
6 | 32:13.38 | 14:09.70 | 145013 | 208757
7 | 46:23.33 | 4:36.42 | 208758 | 229499
8 | 51:00.00 | 5:57.45 | 229500 | 256319
9 | 56:57.45 | 5:26.45 | 256320 | 280814
10 | 62:24.15 | 8:10.55 | 280815 | 317619
11 | 70:34.70 | 1:03.45 | 317620 | 322389
12 | 71:38.40 | 3:39.60 | 322390 | 338874
Характеристики диапазона извлечения и сообщения об ошибках
Выбранный диапазон
Имя файла D:\EAC\Wagner - Der Ring des Nibelungen - Levine\CD6\Richard Wagner - Die Walkure - CD4.wav
Пиковый уровень 93.3 %
Скорость извлечения 4.5 X
Качество диапазона 100.0 %
CRC теста 9D475CEF
CRC копии 9D475CEF
Копирование... OK
Ошибок не произошло
AccurateRip: сводка
Трек 1 : извлечено точно (доверие 19) [0B7926F6] (AR v2)
Трек 2 : извлечено точно (доверие 20) [C093E68B] (AR v2)
Трек 3 : извлечено точно (доверие 20) [A2A0B164] (AR v2)
Трек 4 : извлечено точно (доверие 20) [75629BFC] (AR v2)
Трек 5 : извлечено точно (доверие 19) [FAE206B3] (AR v2)
Трек 6 : извлечено точно (доверие 20) [2A5AC59D] (AR v2)
Трек 7 : извлечено точно (доверие 20) [600F87D1] (AR v2)
Трек 8 : извлечено точно (доверие 20) [7EC7DE06] (AR v2)
Трек 9 : извлечено точно (доверие 20) [9CBE5731] (AR v2)
Трек 10 : извлечено точно (доверие 20) [4A9AC0FB] (AR v2)
Трек 11 : извлечено точно (доверие 20) [F5CE5FF5] (AR v2)
Трек 12 : извлечено точно (доверие 20) [4DE6CE25] (AR v2)
Все треки извлечены точно
Конец отчёта
==== Контрольная сумма отчёта 673B777CE7129313A64A85B88F415A67688A55308F7A90CADD834FC3D41C31A7 ====

Исполнители:

Siegmund - Gary Lakes
Sieglinde - Jessye Norman
Wotan - James Morris
Brünnhilde - Hildegard Behrens
Hunding - Kurt Moll
Fricka - Christa Ludwig
Gerhilde - Marita Napier
Ortlinde - Marilyn Mims
Waltraute - Reinhild Runkel
Schwertleite - Ruthild Engert-Ely
Helmwige - Linda Kelm
Siegrune - Diane Kesling
Grimgerde - Meredith Parsons
Rossweise - Anne Wilkens
Metropolitan Opera Orchestra and Chorus
James Levine

Siegfried:CD1:Треклист:

01. Act 1: Prelude
02. Act 1. Scene 1: Zwangvolle Plage! Müh ohne Zweck!
03. Act 1. Scene 1: Hoiho! Hoiho! Hau ein! Hau ein!
04. Act 1. Scene 1: Nun tobst du wieder wie toll
05. Act 1. Scene 1: Vieles lehrtest du, Mime
06. Act 1. Scene 1: Ans Leben gehst du mir schier!
07. Act 1. Scene 1: Und diese Stücke sollst du mir schmieden
08. Act 1. Scene 2: Heil dir, weiser Schmied!
09. Act 1. Scene 2: Auf wolkigen Höh'n wohnen die Götter
10. Act 1. Scene 3: Verfluchtes Licht!
Total 62.19

Лог создания рипа:

Exact Audio Copy V1.0 beta 3 from 29. August 2011
Отчёт EAC об извлечении, выполненном 16. января 2015, 18:01
Richard Wagner / Siegfried - CD1
Дисковод: Optiarc DVD RW AD-7260S Adapter: 0 ID: 1
Режим чтения : Достоверность
Использование точного потока : Да
Отключение кэша аудио : Да
Использование указателей C2 : Нет
Коррекция смещения при чтении : 48
Способность читать области Lead-in и Lead-out : Нет
Заполнение пропущенных сэмплов тишиной : Да
Удаление блоков с тишиной в начале и конце : Нет
При вычислениях CRC использовались нулевые сэмплы : Да
Интерфейс : Встроенный Win32-интерфейс для Win NT/2000
Выходной формат : Пользовательский кодировщик
Выбранный битрейт : 896 kBit/s
Качество : Высокий
Добавление ID3-тега : Нет
Утилита сжатия : C:\Program Files\FLAC Frontend\tools\flac.exe
Дополнительные параметры : -V -8 -T "Date=%year%" -T "Genre=%genre%" %source%
TOC извлечённого CD
Трек | Старт | Длительность | Начальный сектор | Конечный сектор
---------------------------------------------------------------------
1 | 0:00.00 | 5:07.55 | 0 | 23079
2 | 5:07.55 | 3:47.38 | 23080 | 40142
3 | 8:55.18 | 2:34.25 | 40143 | 51717
4 | 11:29.43 | 3:04.62 | 51718 | 65579
5 | 14:34.30 | 8:06.25 | 65580 | 102054
6 | 22:40.55 | 6:45.13 | 102055 | 132442
7 | 29:25.68 | 3:15.35 | 132443 | 147102
8 | 32:41.28 | 11:08.55 | 147103 | 197257
9 | 43:50.08 | 14:00.55 | 197258 | 260312
10 | 57:50.63 | 4:28.12 | 260313 | 280424
Характеристики диапазона извлечения и сообщения об ошибках
Выбранный диапазон
Имя файла D:\EAC\Wagner - Der Ring des Nibelungen - Levine\CD7\Richard Wagner - Siegfried - CD1.wav
Пиковый уровень 93.7 %
Скорость извлечения 4.1 X
Качество диапазона 99.9 %
CRC теста 1A4110F7
CRC копии 1A4110F7
Копирование... OK
Ошибок не произошло
AccurateRip: сводка
Трек 1 : извлечено точно (доверие 20) [A662F958] (AR v2)
Трек 2 : извлечено точно (доверие 21) [780EEA4B] (AR v2)
Трек 3 : извлечено точно (доверие 21) [D65E08DE] (AR v2)
Трек 4 : извлечено точно (доверие 21) [07E4A331] (AR v2)
Трек 5 : извлечено точно (доверие 21) [AC738A62] (AR v2)
Трек 6 : извлечено точно (доверие 21) [C3E3231C] (AR v2)
Трек 7 : извлечено точно (доверие 21) [6E4276F6] (AR v2)
Трек 8 : извлечено точно (доверие 21) [2A5F431E] (AR v2)
Трек 9 : извлечено точно (доверие 21) [9B28997B] (AR v2)
Трек 10 : извлечено точно (доверие 21) [9C4F0D11] (AR v2)
Все треки извлечены точно
Конец отчёта
==== Контрольная сумма отчёта E7AC108A3554A34C34C66921E39C64F292D30475FD4D354FA3B1F0084E505A0B ====

CD2:Треклист:

01. Act 1. Scene 3: Was ist's mit dem Fürchten?
02. Act 1. Scene 3: Notung! Notung! Neidliches Schwert!
03. Act 1. Scene 3: Hoho! Hoho! Hohei! Schmiede, mein Hammer, ein hartes Schwert!
04. Act 1. Scene 3: Den der Bruder schuf, den schimmernden Reif
05. Act 2: Prelude
06. Act 2. Scene 1: In Wald und Nacht vor Neidhöhl' halt' ich Wacht
07. Act 2. Scene 1: Durch Vertrages Treuerunen band er dich Bösen mir nicht
08. Act 2. Scene 2: Wir sind zur Stelle! Bleib hier stehn!
09. Act 2. Scene 2: Daß der mein Vater nicht ist
Total 67.04

Лог создания рипа:

Exact Audio Copy V1.0 beta 3 from 29. August 2011
Отчёт EAC об извлечении, выполненном 16. января 2015, 18:41
Richard Wagner / Siegfried - CD2
Дисковод: Optiarc DVD RW AD-7260S Adapter: 0 ID: 1
Режим чтения : Достоверность
Использование точного потока : Да
Отключение кэша аудио : Да
Использование указателей C2 : Нет
Коррекция смещения при чтении : 48
Способность читать области Lead-in и Lead-out : Нет
Заполнение пропущенных сэмплов тишиной : Да
Удаление блоков с тишиной в начале и конце : Нет
При вычислениях CRC использовались нулевые сэмплы : Да
Интерфейс : Встроенный Win32-интерфейс для Win NT/2000
Выходной формат : Пользовательский кодировщик
Выбранный битрейт : 896 kBit/s
Качество : Высокий
Добавление ID3-тега : Нет
Утилита сжатия : C:\Program Files\FLAC Frontend\tools\flac.exe
Дополнительные параметры : -V -8 -T "Date=%year%" -T "Genre=%genre%" %source%
TOC извлечённого CD
Трек | Старт | Длительность | Начальный сектор | Конечный сектор
---------------------------------------------------------------------
1 | 0:00.00 | 8:46.69 | 0 | 39518
2 | 8:46.69 | 8:15.21 | 39519 | 76664
3 | 17:02.15 | 3:27.55 | 76665 | 92244
4 | 20:29.70 | 3:05.05 | 92245 | 106124
5 | 23:35.00 | 6:10.15 | 106125 | 133889
6 | 29:45.15 | 6:08.33 | 133890 | 161522
7 | 35:53.48 | 13:25.42 | 161523 | 221939
8 | 49:19.15 | 6:29.35 | 221940 | 251149
9 | 55:48.50 | 11:15.25 | 251150 | 301799
Характеристики диапазона извлечения и сообщения об ошибках
Выбранный диапазон
Имя файла D:\EAC\Wagner - Der Ring des Nibelungen - Levine\CD8\Richard Wagner - Siegfried - CD2.wav
Пиковый уровень 99.7 %
Скорость извлечения 4.4 X
Качество диапазона 100.0 %
CRC теста F17A430D
CRC копии F17A430D
Копирование... OK
Ошибок не произошло
AccurateRip: сводка
Трек 1 : извлечено точно (доверие 3) [C071F285] (AR v2)
Трек 2 : извлечено точно (доверие 3) [614DC602] (AR v2)
Трек 3 : извлечено точно (доверие 3) [538DFB83] (AR v2)
Трек 4 : извлечено точно (доверие 3) [1D2AF359] (AR v2)
Трек 5 : извлечено точно (доверие 3) [C5429404] (AR v2)
Трек 6 : извлечено точно (доверие 3) [88BA6934] (AR v2)
Трек 7 : извлечено точно (доверие 3) [028E5F39] (AR v2)
Трек 8 : извлечено точно (доверие 3) [F46D25C4] (AR v2)
Трек 9 : извлечено точно (доверие 3) [B2429FA7] (AR v2)
Все треки извлечены точно
Конец отчёта
==== Контрольная сумма отчёта 7F17BFD04299F95A038BBB875800C306F1597161659BDC57757C3BAC88FDA961 ====

CD3:Треклист:

01. Act 2. Scene 2: Haha! Da hätte mein Leid mir was Liebes erblasen
02. Act 2. Scene 2: Ist mir doch fast, als sprächen die Vöglein zu mir!
03. Act 2. Scene 3: Wohin schleichst du eilig und schlau
04. Act 2. Scene 3: Was ihr mir nützt, weiß ich nicht
05. Act 2. Scene 3: Neides Zoll zahlt Notung
06. Act 2. Scene 3: Nun sing! Ich lausche dem Gesang
07. Act 3: Prelude
08. Act 3. Scene 1: Wache, Wala! Wala! Erwach!
09. Act 3. Scene 1: Stark ruft das Lied
10. Act 3. Scene 1: Dir Unweisen ruf'ich ins Ohr
11. Act 3. Scene 2: Dort seh' ich Siegfried nahn
Total 64.29

Лог создания рипа:

Exact Audio Copy V1.0 beta 3 from 29. August 2011
Отчёт EAC об извлечении, выполненном 16. января 2015, 20:51
Richard Wagner / Siegfried - CD3
Дисковод: Optiarc DVD RW AD-7260S Adapter: 0 ID: 1
Режим чтения : Достоверность
Использование точного потока : Да
Отключение кэша аудио : Да
Использование указателей C2 : Нет
Коррекция смещения при чтении : 48
Способность читать области Lead-in и Lead-out : Нет
Заполнение пропущенных сэмплов тишиной : Да
Удаление блоков с тишиной в начале и конце : Нет
При вычислениях CRC использовались нулевые сэмплы : Да
Интерфейс : Встроенный Win32-интерфейс для Win NT/2000
Выходной формат : Пользовательский кодировщик
Выбранный битрейт : 896 kBit/s
Качество : Высокий
Добавление ID3-тега : Нет
Утилита сжатия : C:\Program Files\FLAC Frontend\tools\flac.exe
Дополнительные параметры : -V -8 -T "Date=%year%" -T "Genre=%genre%" %source%
TOC извлечённого CD
Трек | Старт | Длительность | Начальный сектор | Конечный сектор
---------------------------------------------------------------------
1 | 0:00.00 | 10:06.13 | 0 | 45462
2 | 10:06.13 | 1:54.02 | 45463 | 54014
3 | 12:00.15 | 2:36.73 | 54015 | 65787
4 | 14:37.13 | 10:05.55 | 65788 | 111217
5 | 24:42.68 | 7:08.42 | 111218 | 143359
6 | 31:51.35 | 4:24.40 | 143360 | 163199
7 | 36:16.00 | 2:16.20 | 163200 | 173419
8 | 38:32.20 | 2:12.53 | 173420 | 183372
9 | 40:44.73 | 11:05.27 | 183373 | 233274
10 | 51:50.25 | 4:16.45 | 233275 | 252519
11 | 56:06.70 | 8:22.05 | 252520 | 290174
Характеристики диапазона извлечения и сообщения об ошибках
Выбранный диапазон
Имя файла D:\EAC\Wagner - Der Ring des Nibelungen - Levine\CD9\Richard Wagner - Siegfried - CD3.wav
Пиковый уровень 97.7 %
Скорость извлечения 4.2 X
Качество диапазона 100.0 %
CRC теста 3425DDA6
CRC копии 3425DDA6
Копирование... OK
Ошибок не произошло
AccurateRip: сводка
Трек 1 : извлечено точно (доверие 20) [6331D969] (AR v2)
Трек 2 : извлечено точно (доверие 21) [785B6CF2] (AR v2)
Трек 3 : извлечено точно (доверие 21) [EE2B6A31] (AR v2)
Трек 4 : извлечено точно (доверие 21) [C063A4F1] (AR v2)
Трек 5 : извлечено точно (доверие 21) [BC9DD887] (AR v2)
Трек 6 : извлечено точно (доверие 21) [87D76D19] (AR v2)
Трек 7 : извлечено точно (доверие 21) [D01C491C] (AR v2)
Трек 8 : извлечено точно (доверие 21) [D9A93245] (AR v2)
Трек 9 : извлечено точно (доверие 21) [5A411DB6] (AR v2)
Трек 10 : извлечено точно (доверие 21) [4DAF1563] (AR v2)
Трек 11 : извлечено точно (доверие 21) [7AB0E952] (AR v2)
Все треки извлечены точно
Конец отчёта
==== Контрольная сумма отчёта 09C931EFF3D09B4BE8779721010E6D9F4D0A18B4C334F2DB0D9301F580EF8BA2 ====

CD4:Треклист:

01. Act 3. Scene 2: Bleibst du mir stumm, störrischer Wicht?
02. Act 3. Scene 2: Zieh hin! Ich kann dich nicht halten!
03. Act 3. Scene 3: Selige Öde auf sonniger Höh'!
04. Act 3. Scene 3: Heil dir, Sonne! Heil dir Licht!
05. Act 3. Scene 3: So starb nicht meine Mutter
06. Act 3. Scene 3: Ewig war ich, ewig bin ich
Total 56.37

Лог создания рипа:

Exact Audio Copy V1.0 beta 3 from 29. August 2011
Отчёт EAC об извлечении, выполненном 17. января 2015, 12:33
Richard Wagner / Siegfried - CD4
Дисковод: Optiarc DVD RW AD-7260S Adapter: 0 ID: 1
Режим чтения : Достоверность
Использование точного потока : Да
Отключение кэша аудио : Да
Использование указателей C2 : Нет
Коррекция смещения при чтении : 48
Способность читать области Lead-in и Lead-out : Нет
Заполнение пропущенных сэмплов тишиной : Да
Удаление блоков с тишиной в начале и конце : Нет
При вычислениях CRC использовались нулевые сэмплы : Да
Интерфейс : Встроенный Win32-интерфейс для Win NT/2000
Выходной формат : Пользовательский кодировщик
Выбранный битрейт : 896 kBit/s
Качество : Высокий
Добавление ID3-тега : Нет
Утилита сжатия : C:\Program Files\FLAC Frontend\tools\flac.exe
Дополнительные параметры : -V -8 -T "Date=%year%" -T "Genre=%genre%" %source%
TOC извлечённого CD
Трек | Старт | Длительность | Начальный сектор | Конечный сектор
---------------------------------------------------------------------
1 | 0:00.00 | 3:16.58 | 0 | 14757
2 | 3:16.58 | 4:04.70 | 14758 | 33127
3 | 7:21.53 | 14:29.52 | 33128 | 98354
4 | 21:51.30 | 7:59.30 | 98355 | 134309
5 | 29:50.60 | 14:19.20 | 134310 | 198754
6 | 44:10.05 | 12:26.70 | 198755 | 254774
Характеристики диапазона извлечения и сообщения об ошибках
Выбранный диапазон
Имя файла D:\EAC\Wagner - Der Ring des Nibelungen - Levine\CD10\Richard Wagner - Siegfried - CD4.wav
Пиковый уровень 98.7 %
Скорость извлечения 4.0 X
Качество диапазона 99.9 %
CRC теста 20CBA393
CRC копии 20CBA393
Копирование... OK
Ошибок не произошло
AccurateRip: сводка
Трек 1 : извлечено точно (доверие 3) [6A138E72] (AR v2)
Трек 2 : извлечено точно (доверие 3) [049AE81A] (AR v2)
Трек 3 : извлечено точно (доверие 3) [673B5A8E] (AR v2)
Трек 4 : извлечено точно (доверие 3) [086D8ED1] (AR v2)
Трек 5 точность не определена (достоверность 18) [0AFAF80D], AccurateRip вернул [817A9E0C] (AR v2)
Трек 6 : извлечено точно (доверие 3) [A7CF822D] (AR v2)
5 трек(и) скопированы точно
1 трек(и) не удалось проверить на точность
Некоторые треки не прошли проверку на точность
Конец отчёта
==== Контрольная сумма отчёта 8F43D82D6BCE505A192E7B3E62CA85B47E0CABDDCAA5EC11404B5599E51CAC6E ====

Исполнители:

Siegfried - Reiner Goldberg
Mime - Heinz Zednik
Brünnhilde - Hildegard Behrens
Wanderer - James Morris
Alberich - Ekkehard Wlaschiha
Fafner - Kurt Moll
Erda - Birgitta Svendén
Waldvogel - Kathleen Battle
Metropolitan Opera Orchestra and Chorus
James Levine

Götterdämmerung:CD1:Треклист:

01. Prologue: Introduction
02. Prologue: Welch Licht leuchtet dort?
03. Prologue: Zu neuen Taten, teurer Helde
04. Prologue: Lass ich, Liebste, dich hier
05. Prologue: Siegfrieds Rhine Journey
06. Act I: Scene 1: Nun hoer, Hagen, sage mir, Held
07. Act I: Scene 1: Hoiho! Wohin, du heitrer Held?
08. Act I: Scene 2: Heil! Siegfried, teurer Held!
Total 61.57

Лог создания рипа:

Exact Audio Copy V1.0 beta 3 from 29. August 2011
Отчёт EAC об извлечении, выполненном 17. января 2015, 11:26
Richard Wagner / Gotterdammerung - CD1
Дисковод: Optiarc DVD RW AD-7260S Adapter: 0 ID: 1
Режим чтения : Достоверность
Использование точного потока : Да
Отключение кэша аудио : Да
Использование указателей C2 : Нет
Коррекция смещения при чтении : 48
Способность читать области Lead-in и Lead-out : Нет
Заполнение пропущенных сэмплов тишиной : Да
Удаление блоков с тишиной в начале и конце : Нет
При вычислениях CRC использовались нулевые сэмплы : Да
Интерфейс : Встроенный Win32-интерфейс для Win NT/2000
Выходной формат : Пользовательский кодировщик
Выбранный битрейт : 896 kBit/s
Качество : Высокий
Добавление ID3-тега : Нет
Утилита сжатия : C:\Program Files\FLAC Frontend\tools\flac.exe
Дополнительные параметры : -V -8 -T "Date=%year%" -T "Genre=%genre%" %source%
TOC извлечённого CD
Трек | Старт | Длительность | Начальный сектор | Конечный сектор
---------------------------------------------------------------------
1 | 0:00.00 | 2:26.60 | 0 | 11009
2 | 2:26.60 | 16:16.60 | 11010 | 84269
3 | 18:43.45 | 8:45.43 | 84270 | 123687
4 | 27:29.13 | 6:14.47 | 123688 | 151784
5 | 33:43.60 | 5:34.55 | 151785 | 176889
6 | 39:18.40 | 12:11.33 | 176890 | 231747
7 | 51:29.73 | 7:11.67 | 231748 | 264139
8 | 58:41.65 | 3:15.10 | 264140 | 278774
Характеристики диапазона извлечения и сообщения об ошибках
Выбранный диапазон
Имя файла D:\EAC\Wagner - Der Ring des Nibelungen - Levine\CD11\Richard Wagner - Gotterdammerung - CD1.wav
Пиковый уровень 99.3 %
Скорость извлечения 4.1 X
Качество диапазона 100.0 %
CRC теста 9DF5B47C
CRC копии 9DF5B47C
Копирование... OK
Ошибок не произошло
AccurateRip: сводка
Трек 1 : извлечено точно (доверие 20) [D7975364] (AR v2)
Трек 2 : извлечено точно (доверие 20) [9ACB8CB4] (AR v2)
Трек 3 : извлечено точно (доверие 20) [A8A2D2AC] (AR v2)
Трек 4 : извлечено точно (доверие 20) [3966C852] (AR v2)
Трек 5 : извлечено точно (доверие 20) [829F5527] (AR v2)
Трек 6 : извлечено точно (доверие 20) [BFA0B2A3] (AR v2)
Трек 7 : извлечено точно (доверие 21) [FAE9EAD5] (AR v2)
Трек 8 : извлечено точно (доверие 21) [03F5F5A9] (AR v2)
Все треки извлечены точно
Конец отчёта
==== Контрольная сумма отчёта FACF284A8B5E5AE6E182B087CB0B867CCE6F9B19A313319DF6C4DFDF6C09E74D ====

CD2:Треклист:

01. Act 1: Scene 2: Gutrune Sinds gute Runen
02. Act 1: Scene 2: Was nahmst du am Eide nicht teil?
03. Act 1: Scene 2: Hier sitz ich zur Wacht, wahre den Hof
04. Act 1: Scene 3: Altgewohntes Geraeusch
05. Act 1: Scene 3: Hoere mit Sinn, was ich dir sage!
06. Act 1: Scene 3: Welch banger Traeume Maeren
07. Act 1: Scene 3: Blitzend Gewoelk
08. Act 1: Scene 3: Brunnhild! Ein Freier kam
Total 60.25

Лог создания рипа:

Exact Audio Copy V1.0 beta 3 from 29. August 2011
Отчёт EAC об извлечении, выполненном 16. января 2015, 23:49
Richard Wagner / Gotterdammerung - CD2
Дисковод: Optiarc DVD RW AD-7260S Adapter: 0 ID: 1
Режим чтения : Достоверность
Использование точного потока : Да
Отключение кэша аудио : Да
Использование указателей C2 : Нет
Коррекция смещения при чтении : 48
Способность читать области Lead-in и Lead-out : Нет
Заполнение пропущенных сэмплов тишиной : Да
Удаление блоков с тишиной в начале и конце : Нет
При вычислениях CRC использовались нулевые сэмплы : Да
Интерфейс : Встроенный Win32-интерфейс для Win NT/2000
Выходной формат : Пользовательский кодировщик
Выбранный битрейт : 896 kBit/s
Качество : Высокий
Добавление ID3-тега : Нет
Утилита сжатия : C:\Program Files\FLAC Frontend\tools\flac.exe
Дополнительные параметры : -V -8 -T "Date=%year%" -T "Genre=%genre%" %source%
TOC извлечённого CD
Трек | Старт | Длительность | Начальный сектор | Конечный сектор
---------------------------------------------------------------------
1 | 0:00.00 | 7:30.03 | 0 | 33752
2 | 7:30.03 | 3:32.62 | 33753 | 49714
3 | 11:02.65 | 10:55.55 | 49715 | 98894
4 | 21:58.45 | 7:52.43 | 98895 | 134337
5 | 29:51.13 | 11:02.35 | 134338 | 184022
6 | 40:53.48 | 6:36.22 | 184023 | 213744
7 | 47:29.70 | 3:26.05 | 213745 | 229199
8 | 50:56.00 | 9:29.00 | 229200 | 271874
Характеристики диапазона извлечения и сообщения об ошибках
Выбранный диапазон
Имя файла D:\EAC\Wagner - Der Ring des Nibelungen - Levine\CD12\Richard Wagner - Gotterdammerung - CD2.wav
Пиковый уровень 98.8 %
Скорость извлечения 4.1 X
Качество диапазона 100.0 %
CRC теста 9BB1CFC5
CRC копии 9BB1CFC5
Копирование... OK
Ошибок не произошло
AccurateRip: сводка
Трек 1 : извлечено точно (доверие 21) [3F0D9A65] (AR v2)
Трек 2 : извлечено точно (доверие 21) [CD7255B2] (AR v2)
Трек 3 : извлечено точно (доверие 20) [F581669B] (AR v2)
Трек 4 : извлечено точно (доверие 21) [AFC1B38B] (AR v2)
Трек 5 : извлечено точно (доверие 21) [8C24FA35] (AR v2)
Трек 6 : извлечено точно (доверие 21) [DFC39236] (AR v2)
Трек 7 : извлечено точно (доверие 21) [680AF532] (AR v2)
Трек 8 : извлечено точно (доверие 20) [37349EEF] (AR v2)
Все треки извлечены точно
Конец отчёта
==== Контрольная сумма отчёта BB92F47704EB24A8A4419B6715657EF02033CD9A623AAC12D1676E16FBD07F09 ====

CD3:Треклист:

01. Act 2: Prelude
02. Act 2: Scene 1: Schlaefst du, Hagen, mein Sohn?
03. Act 2: Scene 3: Hoiho, Hagen! Mueder Mann!
04. Act 2: Scene 3: Hoiho! Ihr Gibichsmannen, machtet euch auf!
05. Act 2: Scene 4: Heil dir, Gunther!; Bruennhild, die hehrste Frau
06. Act 2; Scene 4: Bruennhild, kuehne Frau
07. Act 2; Scene 4: Heilge Gotter, himmlische Lenker!
08. Act 2: Scene 5: Helle Wehr! Heilige Waffe!
09. Act 2: Scene 4: Gunther, wehr deinem Weibe
10. Act 2: Scene 5: Welches Unholds List liegt hier verhohlen?
11. Act 3: Prelude; Act 3; Scene 1: Frau Sonne sendet lichte Strahlen
Total 74.23

Лог создания рипа:

Exact Audio Copy V1.0 beta 3 from 29. August 2011
Отчёт EAC об извлечении, выполненном 17. января 2015, 0:39
Richard Wagner / Gotterdammerung - CD3
Дисковод: Optiarc DVD RW AD-7260S Adapter: 0 ID: 1
Режим чтения : Достоверность
Использование точного потока : Да
Отключение кэша аудио : Да
Использование указателей C2 : Нет
Коррекция смещения при чтении : 48
Способность читать области Lead-in и Lead-out : Нет
Заполнение пропущенных сэмплов тишиной : Да
Удаление блоков с тишиной в начале и конце : Нет
При вычислениях CRC использовались нулевые сэмплы : Да
Интерфейс : Встроенный Win32-интерфейс для Win NT/2000
Выходной формат : Пользовательский кодировщик
Выбранный битрейт : 896 kBit/s
Качество : Высокий
Добавление ID3-тега : Нет
Утилита сжатия : C:\Program Files\FLAC Frontend\tools\flac.exe
Дополнительные параметры : -V -8 -T "Date=%year%" -T "Genre=%genre%" %source%
TOC извлечённого CD
Трек | Старт | Длительность | Начальный сектор | Конечный сектор
---------------------------------------------------------------------
1 | 0:00.00 | 3:20.25 | 0 | 15024
2 | 3:20.25 | 9:28.50 | 15025 | 57674
3 | 12:49.00 | 6:18.25 | 57675 | 86049
4 | 19:07.25 | 10:15.35 | 86050 | 132209
5 | 29:22.60 | 8:00.50 | 132210 | 168259
6 | 37:23.35 | 1:06.60 | 168260 | 173269
7 | 38:30.20 | 7:34.20 | 173270 | 207339
8 | 46:04.40 | 1:27.28 | 207340 | 213892
9 | 47:31.68 | 3:40.02 | 213893 | 230394
10 | 51:11.70 | 16:08.05 | 230395 | 302999
11 | 67:20.00 | 7:03.00 | 303000 | 334724
Характеристики диапазона извлечения и сообщения об ошибках
Выбранный диапазон
Имя файла D:\EAC\Wagner - Der Ring des Nibelungen - Levine\CD13\Richard Wagner - Gotterdammerung - CD3.wav
Пиковый уровень 99.8 %
Скорость извлечения 4.5 X
Качество диапазона 100.0 %
CRC теста 45D46EBF
CRC копии 45D46EBF
Копирование... OK
Ошибок не произошло
AccurateRip: сводка
Трек 1 : извлечено точно (доверие 20) [B958B651] (AR v2)
Трек 2 : извлечено точно (доверие 20) [EA33DC59] (AR v2)
Трек 3 : извлечено точно (доверие 19) [7AC7D6FB] (AR v2)
Трек 4 : извлечено точно (доверие 19) [CD86DBEC] (AR v2)
Трек 5 : извлечено точно (доверие 20) [9F5B0D9C] (AR v2)
Трек 6 : извлечено точно (доверие 20) [8A55AAB8] (AR v2)
Трек 7 : извлечено точно (доверие 20) [21E4F63C] (AR v2)
Трек 8 : извлечено точно (доверие 20) [135355F8] (AR v2)
Трек 9 : извлечено точно (доверие 20) [F61B7F89] (AR v2)
Трек 10 : извлечено точно (доверие 19) [9F728CE8] (AR v2)
Трек 11 : извлечено точно (доверие 20) [7259BEF6] (AR v2)
Все треки извлечены точно
Конец отчёта
==== Контрольная сумма отчёта AD66DC60AEBE817905B0A0CFD28868CAFC157AEF0875BC18686C1F5BE6A7E35B ====

CD4:Треклист:

01. Act 3: Scene 1: Ein Albe fuehrte mich irr
02. Act 3: Scene 1: Mein Schwert zerschwang einen Speer
03. Act 3: Scene 2: Hoiho!
04. Act 3: Scene 2: Bruennhilde, heilige Braut!
05. Act 3: Scene 2: Funeral Music
06. Act 3: Scene 3: War das sein Horn?
07. Act 3: Scene 3: Starke Scheite schichtet mir dort
Total 73.10

Лог создания рипа:

Exact Audio Copy V1.0 beta 3 from 29. August 2011
Отчёт EAC об извлечении, выполненном 17. января 2015, 13:22
Richard Wagner / Gotterdammerung - CD4
Дисковод: Optiarc DVD RW AD-7260S Adapter: 0 ID: 1
Режим чтения : Достоверность
Использование точного потока : Да
Отключение кэша аудио : Да
Использование указателей C2 : Нет
Коррекция смещения при чтении : 48
Способность читать области Lead-in и Lead-out : Нет
Заполнение пропущенных сэмплов тишиной : Да
Удаление блоков с тишиной в начале и конце : Нет
При вычислениях CRC использовались нулевые сэмплы : Да
Интерфейс : Встроенный Win32-интерфейс для Win NT/2000
Выходной формат : Пользовательский кодировщик
Выбранный битрейт : 896 kBit/s
Качество : Высокий
Добавление ID3-тега : Нет
Утилита сжатия : C:\Program Files\FLAC Frontend\tools\flac.exe
Дополнительные параметры : -V -8 -T "Date=%year%" -T "Genre=%genre%" %source%
TOC извлечённого CD
Трек | Старт | Длительность | Начальный сектор | Конечный сектор
---------------------------------------------------------------------
1 | 0:00.00 | 8:05.35 | 0 | 36409
2 | 8:05.35 | 5:48.55 | 36410 | 62564
3 | 13:54.15 | 16:34.53 | 62565 | 137167
4 | 30:28.68 | 5:38.60 | 137168 | 162577
5 | 36:07.53 | 6:08.39 | 162578 | 190216
6 | 42:16.17 | 11:50.31 | 190217 | 243497
7 | 54:06.48 | 19:03.27 | 243498 | 329249
Характеристики диапазона извлечения и сообщения об ошибках
Выбранный диапазон
Имя файла D:\EAC\Wagner - Der Ring des Nibelungen - Levine\CD14\Richard Wagner - Gotterdammerung - CD4.wav
Пиковый уровень 98.9 %
Скорость извлечения 4.5 X
Качество диапазона 99.9 %
CRC теста A1A31ABB
CRC копии A1A31ABB
Копирование... OK
Ошибок не произошло
AccurateRip: сводка
Трек 1 : извлечено точно (доверие 20) [8104C9C8] (AR v2)
Трек 2 : извлечено точно (доверие 21) [E511274C] (AR v2)
Трек 3 : извлечено точно (доверие 21) [22A813D3] (AR v2)
Трек 4 : извлечено точно (доверие 21) [5498B2E0] (AR v2)
Трек 5 : извлечено точно (доверие 21) [6E393A3F] (AR v2)
Трек 6 : извлечено точно (доверие 21) [53DCC83F] (AR v2)
Трек 7 : извлечено точно (доверие 20) [81CE1D95] (AR v2)
Все треки извлечены точно
Конец отчёта
==== Контрольная сумма отчёта 2DEFD54F2DCE3F5C15168705B41FB6713D2483093BD8D6C4B78D41E46828E8DF ====

Исполнители:

Brünnhilde - Hildegard Behrens
Siegfried - Reiner Goldberg
Hagen - Matti Salminen
Alberich - Ekkehard Wlaschiha
Gunther - Bernd Weikl
Gutrun, - Sheryl Studer
Waltraut, - Hanna Schwarz
Woglinde - Hei-Kyung Hong
Wellgunde - Diane Kesling
Flosshilde - Meredith Parsons
1. Norne - Helga Dernesch
2. Norne - Tatiana Troyanos
3. Norne - Andrea Gruber
Metropolitan Opera Orchestra and Chorus
James Levine



Показать сообщения:    

Текущее время: 08-Дек 17:24

Часовой пояс: UTC + 3


Вы не можете начинать темы
Вы не можете отвечать на сообщения
Вы не можете редактировать свои сообщения
Вы не можете удалять свои сообщения
Вы не можете голосовать в опросах
Вы не можете прикреплять файлы к сообщениям
Вы не можете скачивать файлы