Кумиры экрана. Алла Ларионова (Руслан Заварзин) [2000, Личности и кумиры, DVB]


Статистика раздачи [Обновить пиров]
Размер:  484 MB   |    Зарегистрирован:  8 месяцев 14 дней   |    Скачан:  0 раз

Полного источника не было: Никогда

 
   
 
 
 

[Цитировать]

Кумиры экрана. Алла Ларионова
Дата/Год выпуска: 2000
Страна: Россия
Жанр: Личности и кумиры
Продолжительность: 00:26:32
Перевод: Не требуется
Cтудия / издатель:: ВТВ-сервис
Русские субтитры: нет
Режиссер: Руслан Заварзин
Телеканал: Ретро
Описание: Алла Ларионова родилась 19 февраля 1931 в Москве на Спартаковской улице, прямо напротив Елоховской церкви. Отец — директор райпищеторга, мать — завхоз в детском саду. Получила имя в честь кумира того времени — актрисы Аллы Тарасовой.
Ещё во время учёбы в школе Алла Ларионова начала сниматься в кино в массовых сценах. После окончания школы поступила в ГИТИС, затем, в 1948 году, во ВГИК, где познакомилась со своим будущим супругом Николаем Рыбниковым.
В 1953 году году на экраны СССР вышел фильм-сказка Александра Птушко «Садко», где доверили сыграть Алле Ларионовой. Фильм получил признание на кинофестивале в Венеции. На молодую актрису посыпались предложения от иностранных режиссёров, в том числе и от Чарли Чаплина. Настоящую славу и всеобщее признание в СССР принесла актрисе главная роль в знаменитом фильме режиссёра Исидора Анненского «Анна на шее» — одном из лидеров кинопроката середины 1950-х годов. Толпы людей, часто в непогоду, стояли в очередях перед кинотеатрами, чтобы увидеть эту картину...
Доп. информация: "Кумиры экрана" - авторская передача Народной артистки СССР Клары Лучко, выступающей в роли ведущей.
Сэмпл: https://www.sendspace.com/file/ebyr5f
качество: DVB
формат: MPG
Видео: MPEG2 720:576 4:3 2309 Кбит/сек 25,000 кадров/сек
Аудио: MPEG Audio 192 Кбит/сек 48,0 КГц 2 канала

MediaInfo

Общее
Полное имя : Кумиры экрана Ларионова.mpg
Формат : MPEG-PS
Размер файла : 484 Мбайт
Продолжительность : 26 м.
Режим общего битрейта : Переменный
Общий поток : 2551 Кбит/сек
Видео
Идентификатор : 224 (0xE0)
Формат : MPEG Video
Версия формата : Version 2
Профиль формата : Main@Main
Параметр BVOP формата : Да
Параметр матрицы формата : Выборочная
Параметр GOP формата : M=3, N=12
Продолжительность : 26 м.
Вид битрейта : Переменный
Битрейт : 2309 Кбит/сек
Максимальный битрейт : 10000 Кбит/сек
Ширина : 720 пикселей
Высота : 576 пикселей
Соотношение сторон : 4:3
Частота кадров : 25,000 кадров/сек
Стандарт вещания : PAL
Цветовое пространство : YUV
Субдискретизация насыщенности : 4:2:0
Битовая глубина : 8 бит
Тип развёртки : Чересстрочная
Порядок развёртки : Верхнее поле первое
Метод сжатия : С потерями
Бит/(Пиксели*Кадры) : 0.223
Временной код первого кадра : 00:00:00:00
Оригинал временного кода : Group of pictures header
Размер потока : 438 Мбайт (90%)
Аудио
Идентификатор : 192 (0xC0)
Формат : MPEG Audio
Версия формата : Version 1
Профиль формата : Layer 2
Продолжительность : 26 м.
Вид битрейта : Постоянный
Битрейт : 192 Кбит/сек
Каналы : 2 канала
Частота : 48,0 КГц
Метод сжатия : С потерями
Задержка видео : 11 мс.
Размер потока : 36,5 Мбайт (8%)

Скриншоты

Запись потока *.ts произведена тюнером цифрового телевидения. В связи с тем, что не все плееры воспроизводят поток *.ts (MPEG-TS) , в данном видеофайле мной был сделан ремукс потока *.ts (MPEG-TS) в *.mpg (MPEG-PS) программой VideoReDo.
[teatrix.ru].t20654.torrent 
Торрент: Зарегистрирован [ 2016-03-20 00:14 ] · 6DD8ADB209EC8A7C858DAE5597342944022E8CB3

Скачать .torrent

Скачать

19 KB

Статус: проверено
Скачан: 0 раз
Размер: 484 MB
terms.php



Быстрый ответ

Имя:

      
Для отправки сообщений необходимо включить JavaScript
Показать сообщения:    

Текущее время: 03-Дек 01:19

Часовой пояс: UTC + 3


Вы можете начинать темы
Вы можете отвечать на сообщения
Вы не можете редактировать свои сообщения
Вы не можете удалять свои сообщения
Вы не можете голосовать в опросах
Вы не можете прикреплять файлы к сообщениям
Вы можете скачивать файлы