(Classical) Шостакович, Прокофьев - Сонаты для виолончели и фортепиано - Sonia Wieder-Atherton, Laurent Cabasso - 2011, FLAC (image+.cue) lossless


 

[Цитировать]

Шостакович, Прокофьев - Сонаты для виолончели и фортепиано - Sonia Wieder-Atherton, Laurent Cabasso
Жанр: Classical
Страна-производитель диска: France
Год издания диска: 2011
Издатель (лейбл): Naive
Номер по каталогу: V4666
Дата записи: 1992
Аудиокодек: FLAC
Тип рипа: image+.cue
Битрейт аудио: lossless
Продолжительность: 65:51
Источник: собственный рип
Наличие сканов в содержимом раздачи: да
Треклист:
Дмитрий Шостакович (1906-1975)
[1]-[4] Соната для виолончели и фортепиано ре минор, Op.40
Сергей Прокофьев (1891-1953)
[5] Адажио, Op.97 bis
[6]-[8] Соната для виолончели и фортепиано до мажор, Op.119
[9] Баллада, Op.15
Исполнители:
Sonia Wieder-Atherton cello
Laurent Cabasso piano

Лог создания рипа

Exact Audio Copy V1.0 beta 3 from 29. August 2011
EAC extraction logfile from 30. November 2014, 19:39
Sonia Wieder-Atherton, Laurent Cabasso / Shostakovich, Prokofiev - Cello Sonatas
Used drive : HL-DT-STDVDRAM GU70N Adapter: 0 ID: 0
Read mode : Secure
Utilize accurate stream : Yes
Defeat audio cache : Yes
Make use of C2 pointers : No
Read offset correction : 48
Overread into Lead-In and Lead-Out : No
Fill up missing offset samples with silence : Yes
Delete leading and trailing silent blocks : No
Null samples used in CRC calculations : Yes
Used interface : Native Win32 interface for Win NT & 2000
Used output format : User Defined Encoder
Selected bitrate : 128 kBit/s
Quality : High
Add ID3 tag : No
Command line compressor : C:\Program Files (x86)\Exact Audio Copy\Flac\flac.exe
Additional command line options : -V -8 -T "Date=%year%" -T "Genre=%genre%" %source%
TOC of the extracted CD
Track | Start | Length | Start sector | End sector
---------------------------------------------------------
1 | 0:00.32 | 11:29.68 | 32 | 51774
2 | 11:30.25 | 3:09.42 | 51775 | 65991
3 | 14:39.67 | 7:53.43 | 65992 | 101509
4 | 22:33.35 | 3:49.17 | 101510 | 118701
5 | 26:22.52 | 5:05.55 | 118702 | 141631
6 | 31:28.32 | 10:46.00 | 141632 | 190081
7 | 42:14.32 | 4:27.40 | 190082 | 210146
8 | 46:41.72 | 8:09.20 | 210147 | 246841
9 | 54:51.17 | 11:52.15 | 246842 | 300256
Range status and errors
Selected range
Filename C:\temp\V4666 - Shostakovich, Prokofiev - Cello Sonatas (Wieder-Atherton, Cabasso)\Shostakovich, Prokofiev - Cello Sonatas.wav
Peak level 97.8 %
Extraction speed 5.2 X
Range quality 100.0 %
Test CRC 07C9AC24
Copy CRC 07C9AC24
Copy OK
No errors occurred
AccurateRip summary
Track 1 accurately ripped (confidence 2) [87C36118] (AR v2)
Track 2 accurately ripped (confidence 2) [4FF48A83] (AR v2)
Track 3 accurately ripped (confidence 2) [EA0A6F41] (AR v2)
Track 4 accurately ripped (confidence 2) [09C972FF] (AR v2)
Track 5 accurately ripped (confidence 2) [EAF3F21B] (AR v2)
Track 6 accurately ripped (confidence 2) [F0664DF5] (AR v2)
Track 7 accurately ripped (confidence 2) [6830FD74] (AR v2)
Track 8 accurately ripped (confidence 2) [1DC23E56] (AR v2)
Track 9 accurately ripped (confidence 2) [B9635248] (AR v2)
All tracks accurately ripped
End of status report
==== Log checksum F22786A89BC32A9D9904E6B4D47943A191A48D1483757282D28D1A5B31C71B84 ====



Показать сообщения:    

Текущее время: 09-Дек 06:57

Часовой пояс: UTC + 3


Вы не можете начинать темы
Вы не можете отвечать на сообщения
Вы не можете редактировать свои сообщения
Вы не можете удалять свои сообщения
Вы не можете голосовать в опросах
Вы не можете прикреплять файлы к сообщениям
Вы не можете скачивать файлы