(Opera) Wagner - Die Walkure (Hale, Schnaut, Elming, Marc, Muff, Silja, Crider, The Cleveland Orchestra, Christoph von Dohnanyi - 1997, FLAC (image+.cue), lossless


 

[Цитировать]

Wagner - Die Walküre - Dohnanyi
Жанр: Opera
Страна-производитель диска: Germany
Год издания диска: 1997
Издатель (лейбл): Decca
Номер по каталогу: 440 371-2
Дата записи: 11.1992
Аудиокодек: FLAC
Тип рипа: image+.cue
Битрейт аудио: lossless
Продолжительность: 64.28 + 63.56 + 27.32 + 69.11
Источник: собственный рип
Наличие сканов в содержимом раздачи: да

CD1:Треклист:

Act I
01. Vorspiel
02. Wes Herd dies auch sei
03. Kuhle Labung gab mir der Quell
04. Mud am Herd fand ich den Mann
05. Friedmund darf ich nicht heissen
06. Aus dem Wald trieb es mich fort
07. Ich weiss ein wildes Geschlecht
08. Ein Schwert verhiess mir der Vater
09. Schlafst du Gast
10. Wintersturme wichen dem Wonnemond
11. Du bist der Lenz, nach dem ich verlangte
12. Wehwalt heisst du furwahr - Siegmund heiss ich
Total 64.29

Лог создания рипа:

Exact Audio Copy V1.0 beta 3 from 29. August 2011
Отчёт EAC об извлечении, выполненном 28. февраля 2015, 20:19
Richard Wagner / Die Walkure - CD1
Дисковод: _NEC DVD_RW ND-3570A Adapter: 2 ID: 0
Режим чтения : Скоростной
Коррекция смещения при чтении : 48
Способность читать области Lead-in и Lead-out : Нет
Заполнение пропущенных сэмплов тишиной : Да
Удаление блоков с тишиной в начале и конце : Нет
При вычислениях CRC использовались нулевые сэмплы : Да
Интерфейс : Встроенный Win32-интерфейс для Win NT/2000
Выходной формат : Пользовательский кодировщик
Выбранный битрейт : 896 kBit/s
Качество : Высокий
Добавление ID3-тега : Нет
Утилита сжатия : C:\Program Files\FLAC Frontend\tools\flac.exe
Дополнительные параметры : -V -8 -T "Date=%year%" -T "Genre=%genre%" %source%
TOC извлечённого CD
Трек | Старт | Длительность | Начальный сектор | Конечный сектор
---------------------------------------------------------------------
1 | 0:00.32 | 3:51.65 | 32 | 17421
2 | 3:52.22 | 4:04.25 | 17422 | 35746
3 | 7:56.47 | 7:54.23 | 35747 | 71319
4 | 15:50.70 | 5:35.17 | 71320 | 96461
5 | 21:26.12 | 4:05.25 | 96462 | 114861
6 | 25:31.37 | 5:49.48 | 114862 | 141084
7 | 31:21.10 | 6:05.27 | 141085 | 168486
8 | 37:26.37 | 5:38.20 | 168487 | 193856
9 | 43:04.57 | 6:23.53 | 193857 | 222634
10 | 49:28.35 | 2:56.70 | 222635 | 235904
11 | 52:25.30 | 6:53.35 | 235905 | 266914
12 | 59:18.65 | 5:09.70 | 266915 | 290159
Характеристики диапазона извлечения и сообщения об ошибках
Выбранный диапазон
Имя файла N:\Wagner - Die Walkure - Dohnanyi\CD1\Richard Wagner - Die Walkure - CD1.wav
Пиковый уровень 100.0 %
Скорость извлечения 7.3 X
CRC теста D7E21F9C
CRC копии B91D4675
Копирование... OK
Ошибок не произошло
AccurateRip: сводка
Трек 1 : извлечено точно (доверие 1) [7DE0BD6E] (AR v2)
Трек 2 : извлечено точно (доверие 1) [97F282C2] (AR v2)
Трек 3 : извлечено точно (доверие 1) [2EA8D447] (AR v2)
Трек 4 : извлечено точно (доверие 1) [F238BA08] (AR v2)
Трек 5 : извлечено точно (доверие 1) [3917101A] (AR v2)
Трек 6 : извлечено точно (доверие 1) [CB451D42] (AR v2)
Трек 7 : извлечено точно (доверие 1) [7CCF6EAA] (AR v2)
Трек 8 : извлечено точно (доверие 1) [1948D9D6] (AR v2)
Трек 9 : извлечено точно (доверие 1) [5CC6D209] (AR v2)
Трек 10 : извлечено точно (доверие 1) [4F008E90] (AR v2)
Трек 11 : извлечено точно (доверие 1) [8E8E4C62] (AR v2)
Трек 12 : извлечено точно (доверие 1) [1EAD58B6] (AR v2)
Все треки извлечены точно
Конец отчёта
==== Контрольная сумма отчёта 4738845A0BE5EE7F1F52CD8F6C2C94FD06982953BD75C910BE3255B006365AAE ====

CD2:Треклист:

Act II
01. Vorspiel
02. Nun zaume dein ross, reisige Maid
03. Der alte Sturm, die alte Muh!
04. So ist es denn aus mit den ewigen Gottern
05. Nichts lerntest du
06. Was verlangst du
07. Schlimm, furcht ich, schloss der Streit
08. Was keinem in Worten ich kunde
09. Ein andres ist's: achte es wohl
10. O sag, kunde, was soll nun dein Kind
11. Raste nurn hier, gonne dir Ruh!
12. Hinweg! Hinweg! Flieh die Entweihte!
Total 63.56

Лог создания рипа:

Exact Audio Copy V1.0 beta 3 from 29. August 2011
Отчёт EAC об извлечении, выполненном 28. февраля 2015, 21:10
Richard Wagner / Die Walkure - CD2
Дисковод: _NEC DVD_RW ND-3570A Adapter: 2 ID: 0
Режим чтения : Скоростной
Коррекция смещения при чтении : 48
Способность читать области Lead-in и Lead-out : Нет
Заполнение пропущенных сэмплов тишиной : Да
Удаление блоков с тишиной в начале и конце : Нет
При вычислениях CRC использовались нулевые сэмплы : Да
Интерфейс : Встроенный Win32-интерфейс для Win NT/2000
Выходной формат : Пользовательский кодировщик
Выбранный битрейт : 896 kBit/s
Качество : Высокий
Добавление ID3-тега : Нет
Утилита сжатия : C:\Program Files\FLAC Frontend\tools\flac.exe
Дополнительные параметры : -V -8 -T "Date=%year%" -T "Genre=%genre%" %source%
TOC извлечённого CD
Трек | Старт | Длительность | Начальный сектор | Конечный сектор
---------------------------------------------------------------------
1 | 0:00.32 | 2:07.70 | 32 | 9626
2 | 2:08.27 | 2:28.40 | 9627 | 20766
3 | 4:36.67 | 4:32.15 | 20767 | 41181
4 | 9:09.07 | 3:02.38 | 41182 | 54869
5 | 12:11.45 | 5:46.30 | 54870 | 80849
6 | 17:58.00 | 5:13.65 | 80850 | 104389
7 | 23:11.65 | 4:48.45 | 104390 | 126034
8 | 28:00.35 | 6:26.55 | 126035 | 155039
9 | 34:27.15 | 10:51.35 | 155040 | 203899
10 | 45:18.50 | 7:19.07 | 203900 | 236831
11 | 52:37.57 | 3:24.70 | 236832 | 252201
12 | 56:02.52 | 7:53.60 | 252202 | 287736
Характеристики диапазона извлечения и сообщения об ошибках
Выбранный диапазон
Имя файла N:\Wagner - Die Walkure - Dohnanyi\CD2\Richard Wagner - Die Walkure - CD2.wav
Пиковый уровень 100.0 %
Скорость извлечения 7.3 X
CRC теста EC4DDDB8
CRC копии EC4DDDB8
Копирование... OK
Ошибок не произошло
AccurateRip: сводка
Трек 1 : извлечено точно (доверие 1) [D32AAC8E] (AR v2)
Трек 2 : извлечено точно (доверие 1) [F7684D74] (AR v2)
Трек 3 : извлечено точно (доверие 1) [1B2C4D6C] (AR v2)
Трек 4 : извлечено точно (доверие 1) [F3872581] (AR v2)
Трек 5 : извлечено точно (доверие 1) [092033AD] (AR v2)
Трек 6 : извлечено точно (доверие 1) [03DFD1A3] (AR v2)
Трек 7 : извлечено точно (доверие 1) [3F2572D2] (AR v2)
Трек 8 : извлечено точно (доверие 1) [BDFE94EA] (AR v2)
Трек 9 : извлечено точно (доверие 1) [8D314552] (AR v2)
Трек 10 : извлечено точно (доверие 1) [A6E978C0] (AR v2)
Трек 11 : извлечено точно (доверие 1) [EDC8F005] (AR v2)
Трек 12 : извлечено точно (доверие 1) [D50CB197] (AR v2)
Все треки извлечены точно
Конец отчёта
==== Контрольная сумма отчёта 6D70A818DFE48CA90ABBF046079C3F45CAA063F6B1F79F0BCE225C9D053B2D6E ====

CD3:Треклист:

Act II (cont.)
01. Siegmund! Seih auf mich!
02. Hehr bist du, und heilig
03. So weinig achtest du ewige Wonne?
04. Zauberfest bezahmt ein schlaf der Holden Schmerz und Harm
05. Kehrte der Vater nun heim
Total 27.32

Лог создания рипа:

Exact Audio Copy V1.0 beta 3 from 29. August 2011
Отчёт EAC об извлечении, выполненном 28. февраля 2015, 21:24
Richard Wagner / Die Walkure - CD3
Дисковод: _NEC DVD_RW ND-3570A Adapter: 2 ID: 0
Режим чтения : Скоростной
Коррекция смещения при чтении : 48
Способность читать области Lead-in и Lead-out : Нет
Заполнение пропущенных сэмплов тишиной : Да
Удаление блоков с тишиной в начале и конце : Нет
При вычислениях CRC использовались нулевые сэмплы : Да
Интерфейс : Встроенный Win32-интерфейс для Win NT/2000
Выходной формат : Пользовательский кодировщик
Выбранный битрейт : 896 kBit/s
Качество : Высокий
Добавление ID3-тега : Нет
Утилита сжатия : C:\Program Files\FLAC Frontend\tools\flac.exe
Дополнительные параметры : -V -8 -T "Date=%year%" -T "Genre=%genre%" %source%
TOC извлечённого CD
Трек | Старт | Длительность | Начальный сектор | Конечный сектор
---------------------------------------------------------------------
1 | 0:00.32 | 7:21.70 | 32 | 33176
2 | 7:22.27 | 5:51.50 | 33177 | 59551
3 | 13:14.02 | 5:33.48 | 59552 | 84574
4 | 18:47.50 | 3:06.47 | 84575 | 98571
5 | 21:54.22 | 5:37.70 | 98572 | 123916
Характеристики диапазона извлечения и сообщения об ошибках
Выбранный диапазон
Имя файла N:\Wagner - Die Walkure - Dohnanyi\CD3\Richard Wagner - Die Walkure - CD3.wav
Пиковый уровень 100.0 %
Скорость извлечения 5.5 X
CRC теста 10B1D2C9
CRC копии 10B1D2C9
Копирование... OK
Ошибок не произошло
AccurateRip: сводка
Трек 1 : извлечено точно (доверие 1) [961290FD] (AR v2)
Трек 2 : извлечено точно (доверие 1) [58EF99EA] (AR v2)
Трек 3 : извлечено точно (доверие 1) [DCD24DC6] (AR v2)
Трек 4 : извлечено точно (доверие 1) [D8BDD562] (AR v2)
Трек 5 : извлечено точно (доверие 1) [B5E4A2C6] (AR v2)
Все треки извлечены точно
Конец отчёта
==== Контрольная сумма отчёта 264982D6CC61E1AE3B0DE3A728831FE3C9503E70D33D22E25A557E4F8F8BB0B7 ====

CD4:Треклист:

Act III
01. Vorspiel
02. Schutzt mich und helft in hochster Not!
03. Nicht sehre dich Sorge um mich
04. Steh, Brunnhild!
05. Wo ist Brunnhild, wo die Verbrecherin
06. Hier bin ich Vater: gebiete die Strafe
07. Wehe! Weh! Schwester, ach Schwester
08. War es so schmahlich, was ich verbrach
09. Nicht weise bin ich, doch wusst ich das eine
10. So tatest du, was so gern zu tun ich begehrt
11. Du zeugtest ein edles Geschlecht
12. Leb wohl, du kuknes, herrliches Kind!
13. Denn einer nur freie die Braut
14. Loge, hor! Lausche hierher!
Total 69.11

Лог создания рипа:

Exact Audio Copy V1.0 beta 3 from 29. August 2011
Отчёт EAC об извлечении, выполненном 28. февраля 2015, 21:53
Richard Wagner / Die Walkure - CD4
Дисковод: _NEC DVD_RW ND-3570A Adapter: 2 ID: 0
Режим чтения : Скоростной
Коррекция смещения при чтении : 48
Способность читать области Lead-in и Lead-out : Нет
Заполнение пропущенных сэмплов тишиной : Да
Удаление блоков с тишиной в начале и конце : Нет
При вычислениях CRC использовались нулевые сэмплы : Да
Интерфейс : Встроенный Win32-интерфейс для Win NT/2000
Выходной формат : Пользовательский кодировщик
Выбранный битрейт : 896 kBit/s
Качество : Высокий
Добавление ID3-тега : Нет
Утилита сжатия : C:\Program Files\FLAC Frontend\tools\flac.exe
Дополнительные параметры : -V -8 -T "Date=%year%" -T "Genre=%genre%" %source%
TOC извлечённого CD
Трек | Старт | Длительность | Начальный сектор | Конечный сектор
---------------------------------------------------------------------
1 | 0:00.32 | 7:48.13 | 32 | 35144
2 | 7:48.45 | 3:15.62 | 35145 | 49831
3 | 11:04.32 | 5:12.60 | 49832 | 73291
4 | 16:17.17 | 0:52.08 | 73292 | 77199
5 | 17:09.25 | 4:41.30 | 77200 | 98304
6 | 21:50.55 | 3:40.62 | 98305 | 114866
7 | 25:31.42 | 4:54.25 | 114867 | 136941
8 | 30:25.67 | 5:04.13 | 136942 | 159754
9 | 35:30.05 | 4:58.50 | 159755 | 182154
10 | 40:28.55 | 6:50.45 | 182155 | 212949
11 | 47:19.25 | 5:54.40 | 212950 | 239539
12 | 53:13.65 | 2:11.47 | 239540 | 249411
13 | 55:25.37 | 8:34.05 | 249412 | 287966
14 | 63:59.42 | 5:11.35 | 287967 | 311326
Характеристики диапазона извлечения и сообщения об ошибках
Выбранный диапазон
Имя файла N:\Wagner - Die Walkure - Dohnanyi\CD4\Richard Wagner - Die Walkure - CD4.wav
Пиковый уровень 100.0 %
Скорость извлечения 7.5 X
CRC теста 054D32E8
CRC копии 054D32E8
Копирование... OK
Ошибок не произошло
AccurateRip: сводка
Трек 1 : извлечено точно (доверие 1) [EFE01C90] (AR v2)
Трек 2 : извлечено точно (доверие 1) [C35A0C12] (AR v2)
Трек 3 : извлечено точно (доверие 1) [9148B949] (AR v2)
Трек 4 : извлечено точно (доверие 1) [C28F17CF] (AR v2)
Трек 5 : извлечено точно (доверие 1) [159CD673] (AR v2)
Трек 6 : извлечено точно (доверие 1) [8CCD83F1] (AR v2)
Трек 7 : извлечено точно (доверие 1) [2CD25E9E] (AR v2)
Трек 8 : извлечено точно (доверие 1) [336BD1E2] (AR v2)
Трек 9 : извлечено точно (доверие 1) [4E61B63E] (AR v2)
Трек 10 : извлечено точно (доверие 1) [D7D6ACC2] (AR v2)
Трек 11 : извлечено точно (доверие 1) [B6F8FEA4] (AR v2)
Трек 12 : извлечено точно (доверие 1) [D0D81254] (AR v2)
Трек 13 : извлечено точно (доверие 1) [FCF0265A] (AR v2)
Трек 14 : извлечено точно (доверие 1) [43677B82] (AR v2)
Все треки извлечены точно
Конец отчёта
==== Контрольная сумма отчёта 54EB53DB71FCE9A7CDA9BA91398AFC23B1D877C31DD4F9A763A8370008DFC814 ====

Исполнители:

Siegmund - Poul Elming
Sieglinde - Alessandra Marc
Wotan - Robert Halle
Brünnhilde - Gabriele Schnaut
Hunding - Alfred Muff
Fricka - Anja Silja
Gerhilde - Michele Crider
Ortlinde - Susan Marie Pierson
Waltraute - Karin Goltz
Schwertleite - Penelope Walker
Helmwige - Ruth Falcon
Siegrune - Katherine Ciesinski
Grimgerde - Sandra Walker
Rossweise - Susan Shafer
The Cleveland Orchestra
Christoph von Dohnanyi



Показать сообщения:    

Текущее время: 05-Дек 23:37

Часовой пояс: UTC + 3


Вы не можете начинать темы
Вы не можете отвечать на сообщения
Вы не можете редактировать свои сообщения
Вы не можете удалять свои сообщения
Вы не можете голосовать в опросах
Вы не можете прикреплять файлы к сообщениям
Вы не можете скачивать файлы