Веселые медвежата (Сергей Образцов, Семен Самодур, Ева Синельникова) [1973 г., сказка, кукольный, SATRip] Государственный академический Центральный театр кукол


 

[Цитировать]

Веселые медвежата Название театра: Государственный академический Центральный театр кукол.
Год выпуска: 1973.
Жанр: сказка, кукольный.
Продолжительность: 00:53:18.
Режиссеры: народный артист СССР Сергей Образцов, народный артист РСФСР Семен Самодур, заслуженная артистка РСФСР Ева Синельникова.
Действующие лица и исполнители:
Дедушка - Г. Кочармин,
Бабушка - Александра Горбунова,
Медвежонок Топ - Наталья Меркулова,
Медвежонок Топа - Л. Разоренова,
Фимка - Александра Горбунова,
Мама - Лариса Светлова.
Описание:
Поучительная сказка о веселых приключениях маленьких медвежат Топа и Топочки, приехавших на лето к бабушке и дедушке.
Дополнительная информация:
Страна: СССР .
Выпущено: © Творческое объединение "Экран".
Режиссеры спектакля: народный артист СССР Сергей Образцов, народный артист РСФСР Владимир Кусов.
Автор: Мария Поливанова.
Художник: Марина Соколова.
Композитор: Григорий Теплицкий.

Релиз

Качество: SATRip
Формат: AVI
Видео: 720x544 (1.32:1), 25 fps, XviD MPEG-4 ~1811 kbps avg, 0.19 bit/pixel
Аудио: 44.100 kHz, MPEG Layer 3, 2 ch, ~128.00 kbps avg

Отчет MI

Общее
Полное имя : Veselye.medvezhata_Central'nyj.Teatr.Kukol.1973.XviD.SATRip.fenixclub.avi
Format : AVI
Format/Info : Audio Video Interleave
File size : 743 MiB
Duration : 53mn 18s
Overall bit rate : 1 950 Kbps
Writing application : VirtualDubModRus 1.5.10.2 (build 2542/release)
Writing library : VirtualDub build 32842/release
Video
ID : 0
Format : MPEG-4 Visual
Format profile : Advanced Simple@L5
Format settings, BVOP : 2
Format settings, QPel : No
Format settings, GMC : No warppoints
Format settings, Matrix : Default (H.263)
Muxing mode : Packed bitstream
Codec ID : XVID
Codec ID/Hint : XviD
Duration : 53mn 18s
Bit rate : 1 812 Kbps
Width : 720 pixels
Height : 544 pixels
Display aspect ratio : 4:3
Frame rate : 25.000 fps
Color space : YUV
Chroma subsampling : 4:2:0
Bit depth : 8 bits
Scan type : Progressive
Compression mode : Lossy
Bits/(Pixel*Frame) : 0.185
Stream size : 691 MiB (93%)
Writing library : XviD 73
Audio
ID : 1
Format : MPEG Audio
Format version : Version 1
Format profile : Layer 3
Mode : Joint stereo
Mode extension : MS Stereo
Codec ID : 55
Codec ID/Hint : MP3
Duration : 53mn 18s
Bit rate mode : Constant
Bit rate : 128 Kbps
Channel(s) : 2 channels
Sampling rate : 44.1 KHz
Compression mode : Lossy
Stream size : 48.8 MiB (7%)
Alignment : Split accross interleaves
Interleave, duration : 40 ms (1.00 video frame)
Interleave, preload duratio : 500 ms.

Скриншоты

Альтернативный хост




Показать сообщения:    

Текущее время: 04-Дек 19:14

Часовой пояс: UTC + 3


Вы не можете начинать темы
Вы не можете отвечать на сообщения
Вы не можете редактировать свои сообщения
Вы не можете удалять свои сообщения
Вы не можете голосовать в опросах
Вы не можете прикреплять файлы к сообщениям
Вы не можете скачивать файлы