Джоакино Россини - Дева озера (ДиДонато, Флорес, Барчеллона) / Gioachino Rossini - La Donna del lago (DiDonato, Florez, Barcellona) Микеле Мариотти / Michele Mariotti (Paul Curran) [2015, Opera, HDTVRip-AVC 720p] Sub [Русские субтитры][Multi sub's]


 

[Цитировать]

Метрополитен-Опера представляет
ДЖОАКИНО Антонио РОССИНИ
29 февраля (February 29,) 1792 — 13 ноября (November 13,) 1868
»«ДЕВА ОЗЕРА»«
Либретто Андреа Тоттолы по мотивам одноимённой поэмы (1810) Вальтера Скотта

•••
Язык: Итальянский
Субтитры/Subtitles: РУССКИЕ,
English, French, German, Italiano, Espanol, Portuguese, Swedish
Продолжительность: 190 min.

Содержание

TV Broadcast, 2015
РЕЖИССЁР Пол КАРРАН Paul Curran
•••
ЭЛЕН Джойс ДиДОНАТО Joyce DiDonato
УБЕРТО / ЯКОВ V Хуан Диего ФЛОРЕС Juan Diego Flórez
МАЛКОЛЬМ ГРЭМ Даниэла БАРЧЕЛЛОНА Daniela Barcellona
РОДРИГО Джон ОСБОРН John Osborn
ДУГЛАС Орен ГРАДУС Oren Gradus
АЛЬБИНА Ольга МАКАРИНА Olga Makarina
БЕРТРАМ Грегори ШМИДТ Gregory Schmidt
ХОР и ОРКЕСТР Театра МЕТРОПОЛИТЕН-ОПЕРА
ДИРИЖЁР Микеле МАРИОТТИ Michele Mariotti
•••
Качество видео: HDTVRip-AVC
Исходник: FHD [Спасибо, akacha]
Формат/Контейнер: MKV
Аудио кодек: AC-3
Видео поток: 1280x720, 4000 kbps, 25,000 fps.
Аудио поток: Italiano, 448 kbps, 48,0 KHz, 6 ch original

Тех. данныеPart1

-

x264.log


avs [info]: 1280x720p 1:1 @ 25/1 fps (cfr)
x264 [info]: using SAR=1/1
x264 [info]: using cpu capabilities: MMX2 SSE2Fast LZCNT
x264 [info]: profile High, level 4.1
x264 [info]: frame I:1085 Avg QP:13.86 size:100820
x264 [info]: frame P:68973 Avg QP:16.04 size: 31672
x264 [info]: frame B:93682 Avg QP:18.49 size: 10472
x264 [info]: consecutive B-frames: 12.1% 29.9% 14.8% 43.2%
x264 [info]: mb I I16..4: 6.9% 73.6% 19.4%
x264 [info]: mb P I16..4: 0.6% 3.5% 0.7% P16..4: 45.1% 25.2% 17.6% 0.8% 0.3% skip: 6.2%
x264 [info]: mb B I16..4: 0.0% 0.2% 0.0% B16..8: 47.0% 11.5% 2.4% direct: 4.4% skip:34.5% L0:40.6% L1:47.7% BI:11.7%
x264 [info]: 8x8 transform intra:73.7% inter:69.9%
x264 [info]: direct mvs spatial:92.2% temporal:7.8%
x264 [info]: coded y,uvDC,uvAC intra: 80.0% 83.7% 63.9% inter: 32.4% 31.6% 4.0%
x264 [info]: i16 v,h,dc,p: 46% 16% 13% 24%
x264 [info]: i8 v,h,dc,ddl,ddr,vr,hd,vl,hu: 13% 6% 8% 9% 12% 15% 11% 14% 12%
x264 [info]: i4 v,h,dc,ddl,ddr,vr,hd,vl,hu: 12% 5% 4% 10% 14% 17% 12% 14% 12%
x264 [info]: i8c dc,h,v,p: 44% 21% 21% 14%
x264 [info]: Weighted P-Frames: Y:0.4% UV:0.1%
x264 [info]: ref P L0: 54.6% 9.3% 24.7% 11.3% 0.0%
x264 [info]: ref B L0: 79.0% 18.3% 2.7%
x264 [info]: ref B L1: 94.1% 5.9%
x264 [info]: kb/s:4000.14
encoded 163740 frames, 7.47 fps, 4000.14 kb/s
Final statistics
-
General
Unique ID : 244834216620553784323407341812090423809 (0xB8315ADC09B259409D280E2AF1FC4A01)
Complete name : La Donna del lago (DiDonato, Florez) Met 2015\La Donna del lago (Met) Part1.mkv
Format : Matroska
Format version : Version 4 / Version 2
File size : 3.39 GiB
Duration : 1h 49mn
Overall bit rate : 4 450 Kbps
Encoded date : UTC 2015-03-19 06:40:23
Writing application : mkvmerge v7.6.0 ('Garden of Dreams') 32bit built on Feb 8 2015 12:51:39
Writing library : libebml v1.3.1 + libmatroska v1.4.2
DURATION : 01:32:18.178000000
NUMBER_OF_FRAMES : 406
NUMBER_OF_BYTES : 17784
_STATISTICS_WRITING_APP : mkvmerge v7.6.0 ('Garden of Dreams') 32bit built on Feb 8 2015 12:51:39
_STATISTICS_WRITING_DATE_UTC : 2015-03-19 06:40:23
_STATISTICS_TAGS : BPS DURATION NUMBER_OF_FRAMES NUMBER_OF_BYTES
Video
ID : 1
Format : AVC
Format/Info : Advanced Video Codec
Format profile : High@L4.1
Format settings, CABAC : Yes
Format settings, ReFrames : 4 frames
Codec ID : V_MPEG4/ISO/AVC
Duration : 1h 49mn
Bit rate : 4 000 Kbps
Width : 1 280 pixels
Height : 720 pixels
Display aspect ratio : 16:9
Frame rate mode : Constant
Frame rate : 25.000 fps
Color space : YUV
Chroma subsampling : 4:2:0
Bit depth : 8 bits
Scan type : Progressive
Bits/(Pixel*Frame) : 0.174
Stream size : 2.98 GiB (88%)
Writing library : x264 core 142 r2431 ac76440
Encoding settings : cabac=1 / ref=3 / deblock=1:0:0 / analyse=0x3:0x133 / me=umh / subme=9 / psy=1 / psy_rd=1.00:0.00 / mixed_ref=1 / me_range=16 / chroma_me=1 / trellis=1 / 8x8dct=1 / cqm=0 / deadzone=21,11 / fast_pskip=1 / chroma_qp_offset=-2 / threads=4 / lookahead_threads=1 / sliced_threads=0 / nr=0 / decimate=1 / interlaced=0 / bluray_compat=0 / constrained_intra=0 / bframes=3 / b_pyramid=2 / b_adapt=1 / b_bias=0 / direct=3 / weightb=1 / open_gop=0 / weightp=2 / keyint=250 / keyint_min=25 / scenecut=40 / intra_refresh=0 / rc_lookahead=40 / rc=2pass / mbtree=1 / bitrate=4000 / ratetol=1.0 / qcomp=0.60 / qpmin=10 / qpmax=51 / qpstep=4 / cplxblur=20.0 / qblur=0.5 / vbv_maxrate=62500 / vbv_bufsize=78125 / nal_hrd=none / filler=0 / ip_ratio=1.40 / aq=1:1.00
Language : English
Default : Yes
Forced : No
DURATION : 01:49:09.600000000
NUMBER_OF_FRAMES : 163740
NUMBER_OF_BYTES : 3274917597
_STATISTICS_WRITING_APP : mkvmerge v7.6.0 ('Garden of Dreams') 32bit built on Feb 8 2015 12:51:39
_STATISTICS_WRITING_DATE_UTC : 2015-03-19 06:40:23
_STATISTICS_TAGS : BPS DURATION NUMBER_OF_FRAMES NUMBER_OF_BYTES
Audio
ID : 2
Format : AC-3
Format/Info : Audio Coding 3
Mode extension : CM (complete main)
Format settings, Endianness : Big
Codec ID : A_AC3
Duration : 1h 49mn
Bit rate mode : Constant
Bit rate : 448 Kbps
Channel(s) : 6 channels
Channel positions : Front: L C R, Side: L R, LFE
Sampling rate : 48.0 KHz
Bit depth : 16 bits
Compression mode : Lossy
Stream size : 350 MiB (10%)
Language : Italian
Default : Yes
Forced : No
Text #1
ID : 3
Format : UTF-8
Codec ID : S_TEXT/UTF8
Codec ID/Info : UTF-8 Plain Text
Language : Russian
Default : Yes
Forced : No
Text #2
ID : 4
Format : UTF-8
Codec ID : S_TEXT/UTF8
Codec ID/Info : UTF-8 Plain Text
Language : English
Default : No
Forced : No
Text #3
ID : 5
Format : UTF-8
Codec ID : S_TEXT/UTF8
Codec ID/Info : UTF-8 Plain Text
Language : French
Default : No
Forced : No
Text #4
ID : 6
Format : UTF-8
Codec ID : S_TEXT/UTF8
Codec ID/Info : UTF-8 Plain Text
Language : German
Default : No
Forced : No
Text #5
ID : 7
Format : UTF-8
Codec ID : S_TEXT/UTF8
Codec ID/Info : UTF-8 Plain Text
Language : Italian
Default : No
Forced : No
Text #6
ID : 8
Format : UTF-8
Codec ID : S_TEXT/UTF8
Codec ID/Info : UTF-8 Plain Text
Language : Portuguese
Default : No
Forced : No
Text #7
ID : 9
Format : UTF-8
Codec ID : S_TEXT/UTF8
Codec ID/Info : UTF-8 Plain Text
Language : Spanish
Default : No
Forced : No
Text #8
ID : 10
Format : UTF-8
Codec ID : S_TEXT/UTF8
Codec ID/Info : UTF-8 Plain Text
Language : Swedish
Default : No
Forced : No

Part2

-

x264.log


avs [info]: 1280x720p 1:1 @ 25/1 fps (cfr)
x264 [info]: using SAR=1/1
x264 [info]: using cpu capabilities: MMX2 SSE2Fast LZCNT
x264 [info]: profile High, level 4.1
x264 [info]: frame I:919 Avg QP:13.76 size: 92768
x264 [info]: frame P:70637 Avg QP:15.72 size: 26136
x264 [info]: frame B:51219 Avg QP:18.62 size: 10246
x264 [info]: consecutive B-frames: 29.8% 40.9% 8.5% 20.8%
x264 [info]: mb I I16..4: 8.0% 70.9% 21.1%
x264 [info]: mb P I16..4: 0.6% 2.6% 0.5% P16..4: 48.5% 23.5% 16.4% 0.5% 0.2% skip: 7.2%
x264 [info]: mb B I16..4: 0.0% 0.2% 0.0% B16..8: 46.7% 10.9% 2.1% direct: 4.2% skip:35.8% L0:41.1% L1:47.7% BI:11.2%
x264 [info]: 8x8 transform intra:71.1% inter:72.7%
x264 [info]: direct mvs spatial:91.0% temporal:9.0%
x264 [info]: coded y,uvDC,uvAC intra: 73.4% 77.4% 57.7% inter: 33.0% 32.0% 3.9%
x264 [info]: i16 v,h,dc,p: 48% 17% 16% 19%
x264 [info]: i8 v,h,dc,ddl,ddr,vr,hd,vl,hu: 11% 5% 11% 10% 12% 14% 11% 13% 12%
x264 [info]: i4 v,h,dc,ddl,ddr,vr,hd,vl,hu: 12% 5% 5% 10% 14% 16% 12% 13% 13%
x264 [info]: i8c dc,h,v,p: 42% 27% 20% 12%
x264 [info]: Weighted P-Frames: Y:0.6% UV:0.1%
x264 [info]: ref P L0: 54.5% 7.5% 24.7% 13.3% 0.1%
x264 [info]: ref B L0: 77.1% 21.3% 1.6%
x264 [info]: ref B L1: 96.0% 4.0%
x264 [info]: kb/s:4001.22
encoded 122775 frames, 7.55 fps, 4001.22 kb/s
Final statistics
-
General
Unique ID : 234676261917755852691787760706969627801 (0xB08D010690B00C20935E437E4D5B6C99)
Complete name : La Donna del lago (DiDonato, Florez) Met 2015\La Donna del lago (Met) Part2.mkv
Format : Matroska
Format version : Version 4 / Version 2
File size : 2.54 GiB
Duration : 1h 21mn
Overall bit rate : 4 451 Kbps
Encoded date : UTC 2015-03-19 13:45:43
Writing application : mkvmerge v7.6.0 ('Garden of Dreams') 32bit built on Feb 8 2015 12:51:39
Writing library : libebml v1.3.1 + libmatroska v1.4.2
DURATION : 00:58:47.915000000
NUMBER_OF_FRAMES : 270
NUMBER_OF_BYTES : 11087
_STATISTICS_WRITING_APP : mkvmerge v7.6.0 ('Garden of Dreams') 32bit built on Feb 8 2015 12:51:39
_STATISTICS_WRITING_DATE_UTC : 2015-03-19 13:45:43
_STATISTICS_TAGS : BPS DURATION NUMBER_OF_FRAMES NUMBER_OF_BYTES
Video
ID : 1
Format : AVC
Format/Info : Advanced Video Codec
Format profile : High@L4.1
Format settings, CABAC : Yes
Format settings, ReFrames : 4 frames
Codec ID : V_MPEG4/ISO/AVC
Duration : 1h 21mn
Bit rate : 4 000 Kbps
Width : 1 280 pixels
Height : 720 pixels
Display aspect ratio : 16:9
Frame rate mode : Constant
Frame rate : 25.000 fps
Color space : YUV
Chroma subsampling : 4:2:0
Bit depth : 8 bits
Scan type : Progressive
Bits/(Pixel*Frame) : 0.174
Stream size : 2.24 GiB (88%)
Writing library : x264 core 142 r2431 ac76440
Encoding settings : cabac=1 / ref=3 / deblock=1:0:0 / analyse=0x3:0x133 / me=umh / subme=9 / psy=1 / psy_rd=1.00:0.00 / mixed_ref=1 / me_range=16 / chroma_me=1 / trellis=1 / 8x8dct=1 / cqm=0 / deadzone=21,11 / fast_pskip=1 / chroma_qp_offset=-2 / threads=4 / lookahead_threads=1 / sliced_threads=0 / nr=0 / decimate=1 / interlaced=0 / bluray_compat=0 / constrained_intra=0 / bframes=3 / b_pyramid=2 / b_adapt=1 / b_bias=0 / direct=3 / weightb=1 / open_gop=0 / weightp=2 / keyint=250 / keyint_min=25 / scenecut=40 / intra_refresh=0 / rc_lookahead=40 / rc=2pass / mbtree=1 / bitrate=4000 / ratetol=1.0 / qcomp=0.60 / qpmin=10 / qpmax=51 / qpstep=4 / cplxblur=20.0 / qblur=0.5 / vbv_maxrate=62500 / vbv_bufsize=78125 / nal_hrd=none / filler=0 / ip_ratio=1.40 / aq=1:1.00
Language : English
Default : Yes
Forced : No
DURATION : 01:21:51.000000000
NUMBER_OF_FRAMES : 122775
NUMBER_OF_BYTES : 2456247083
_STATISTICS_WRITING_APP : mkvmerge v7.6.0 ('Garden of Dreams') 32bit built on Feb 8 2015 12:51:39
_STATISTICS_WRITING_DATE_UTC : 2015-03-19 13:45:43
_STATISTICS_TAGS : BPS DURATION NUMBER_OF_FRAMES NUMBER_OF_BYTES
Audio
ID : 2
Format : AC-3
Format/Info : Audio Coding 3
Mode extension : CM (complete main)
Format settings, Endianness : Big
Codec ID : A_AC3
Duration : 1h 21mn
Bit rate mode : Constant
Bit rate : 448 Kbps
Channel(s) : 6 channels
Channel positions : Front: L C R, Side: L R, LFE
Sampling rate : 48.0 KHz
Bit depth : 16 bits
Compression mode : Lossy
Stream size : 262 MiB (10%)
Language : Italian
Default : Yes
Forced : No
Text #1
ID : 3
Format : UTF-8
Codec ID : S_TEXT/UTF8
Codec ID/Info : UTF-8 Plain Text
Language : Russian
Default : Yes
Forced : No
Text #2
ID : 4
Format : UTF-8
Codec ID : S_TEXT/UTF8
Codec ID/Info : UTF-8 Plain Text
Language : English
Default : No
Forced : No
Text #3
ID : 5
Format : UTF-8
Codec ID : S_TEXT/UTF8
Codec ID/Info : UTF-8 Plain Text
Language : French
Default : No
Forced : No
Text #4
ID : 6
Format : UTF-8
Codec ID : S_TEXT/UTF8
Codec ID/Info : UTF-8 Plain Text
Language : German
Default : No
Forced : No
Text #5
ID : 7
Format : UTF-8
Codec ID : S_TEXT/UTF8
Codec ID/Info : UTF-8 Plain Text
Language : Italian
Default : No
Forced : No
Text #6
ID : 8
Format : UTF-8
Codec ID : S_TEXT/UTF8
Codec ID/Info : UTF-8 Plain Text
Language : Portuguese
Default : No
Forced : No
Text #7
ID : 9
Format : UTF-8
Codec ID : S_TEXT/UTF8
Codec ID/Info : UTF-8 Plain Text
Language : Spanish
Default : No
Forced : No
Text #8
ID : 10
Format : UTF-8
Codec ID : S_TEXT/UTF8
Codec ID/Info : UTF-8 Plain Text
Language : Swedish
Default : No
Forced : No
Особая благодарность титульному спонсору ТV трансляций marziodance



Показать сообщения:    

Текущее время: 02-Дек 21:13

Часовой пояс: UTC + 3


Вы не можете начинать темы
Вы не можете отвечать на сообщения
Вы не можете редактировать свои сообщения
Вы не можете удалять свои сообщения
Вы не можете голосовать в опросах
Вы не можете прикреплять файлы к сообщениям
Вы не можете скачивать файлы