Осязание / Le sens du toucher / The Sense of Touch (Жан-Шарль Мботти Малоло / Jean-Charles Mbotti Malolo) [2014, Франция, мелодрама, драма, анимация, короткий метр, HDTVRip-AVC]


 

[Цитировать]

Осязание
Le sens du toucher- Страна: Франция
Жанр: мелодрама, драма, анимация, короткий метр
Год выпуска: 2014
Продолжительность: 00:14:05
Перевод: Не требуется
Cубтитры: нет
Оригинальная аудиодорожка: фоновые звукиРежиссер: Жан-Шарль Мботти Малоло / Jean-Charles Mbotti Malolo
В ролях: Элоик Хименез / Eloïc Gimenez, Матильда Комб / Mathilde Combes
Описание: Первый фильм Жана-Шарля Мботти Малоло "Сердце-метроном" получил приз за лучший дебют на Международном фестивале анимационных фильмов в Хиросиме (2008). Идея его второго фильма "Осязание" получила премию французского канала Arte за лучший проект на фестивале анимационных фильмов в Анси в 2011 году и позволила не заботиться о финансировании. Три года ушло на его создание.
Клое и Луи оба глухие, ни это не мешает им любить друг друга. Их жесты заменяют слова, а фразы произносятся движениями танца. Они и представить не могли, что совместный ужин покажет темную сторону Луи…
Доп. информация: Arte HD
Награды: премия Arte France на конкурсе проектов Annecy 2011; 1-й приз за лучший короткометражный фильм Urban Films Festival (Paris) 2014; почетный приз жюри Festival SICAF (Seoul) 2014; Гран-при за лучший анимационный короткометражный фильм Festival International du Film d'Animation de Genève 2014; приз за лучший короткометражный фильм Format Court au Festival de Villeurbanne 2014; др. награды.

Качество видео: HDTVRip-AVC
Формат видео: MKV
Видео: AVC (H.264), 1152x496 (2,32:1), 25 fps, ~2500 kbps avg, 0.175 bit/pixel
Аудио: AC3, 2 ch, 48 kHz, ~192.00 kbps avg

MediaInfo

Общее
Уникальный идентификатор : 218937848405284977419822338978933074606 (0xA4B5E5547B6D8A78849ABC4B018F6AAE)
Полное имя : E:\My Torrents 2\[apreder]MINI_MOVIES_09\[apreder]MM_Le_sens_du_toucher(2014)HDTVRip.mkv
Формат : Matroska
Версия формата : Version 2
Размер файла : 272 Мбайт
Продолжительность : 14 м.
Общий поток : 2697 Кбит/сек
Дата кодирования : UTC 2015-03-19 15:41:56
Программа кодирования : mkvmerge v7.7.0 ('Six Voices') 64bit built on Feb 28 2015 23:39:33
Библиотека кодирования : libebml v1.3.1 + libmatroska v1.4.2
Видео
Идентификатор : 1
Формат : AVC
Формат/Информация : Advanced Video Codec
Профиль формата : High@L4.1
Параметр CABAC формата : Да
Параметр ReFrames формата : 14 кадров
Идентификатор кодека : V_MPEG4/ISO/AVC
Продолжительность : 14 м.
Битрейт : 2500 Кбит/сек
Ширина : 1152 пикселя
Высота : 496 пикселей
Соотношение сторон : 2,35:1
Режим частоты кадров : Постоянный
Частота кадров : 25,000 кадров/сек
Цветовое пространство : YUV
Субдискретизация насыщенности : 4:2:0
Битовая глубина : 8 бит
Тип развёртки : Прогрессивная
Бит/(Пиксели*Кадры) : 0.175
Размер потока : 247 Мбайт (91%)
Библиотека кодирования : x264 core 146 r2538 121396c
Настройки программы : cabac=1 / ref=14 / deblock=1:-1:-1 / analyse=0x3:0x133 / me=umh / subme=10 / psy=1 / psy_rd=1.00:0.15 / mixed_ref=1 / me_range=24 / chroma_me=1 / trellis=2 / 8x8dct=1 / cqm=0 / deadzone=21,11 / fast_pskip=1 / chroma_qp_offset=-3 / threads=6 / lookahead_threads=1 / sliced_threads=0 / nr=0 / decimate=1 / interlaced=0 / bluray_compat=0 / constrained_intra=0 / bframes=8 / b_pyramid=2 / b_adapt=2 / b_bias=0 / direct=3 / weightb=1 / open_gop=0 / weightp=2 / keyint=250 / keyint_min=25 / scenecut=40 / intra_refresh=0 / rc_lookahead=60 / rc=2pass / mbtree=1 / bitrate=2500 / ratetol=1.0 / qcomp=0.60 / qpmin=0 / qpmax=69 / qpstep=4 / cplxblur=20.0 / qblur=0.5 / vbv_maxrate=62500 / vbv_bufsize=78125 / nal_hrd=none / filler=0 / ip_ratio=1.40 / aq=1:1.00
Default : Да
Forced : Нет
Аудио
Идентификатор : 2
Формат : AC-3
Формат/Информация : Audio Coding 3
Расширение режима : CM (complete main)
Параметр Endianness формата : Big
Идентификатор кодека : A_AC3
Продолжительность : 14 м.
Вид битрейта : Постоянный
Битрейт : 192 Кбит/сек
Каналы : 2 канала
Расположение каналов : Front: L R
Частота : 48,0 КГц
Битовая глубина : 16 бит
Метод сжатия : С потерями
Размер потока : 19,3 Мбайт (7%)
Default : Да
Forced : Нет

Скриншот c названием фильма

Скриншоты

Резервные скриншоты

-[2'172]



Показать сообщения:    

Текущее время: 11-Дек 05:21

Часовой пояс: UTC + 3


Вы не можете начинать темы
Вы не можете отвечать на сообщения
Вы не можете редактировать свои сообщения
Вы не можете удалять свои сообщения
Вы не можете голосовать в опросах
Вы не можете прикреплять файлы к сообщениям
Вы не можете скачивать файлы