(Opera) Wagner - Die Walkure (Seiffert, Rydl, Tomlison, Meier, Schnaut, Fujimura, Randt, Bayerisches Staatsorchester, Zubin Mehta) - 2002, FLAC (image+.cue), lossless


 

[Цитировать]

Wagner - Die Walküre - Mehta
Жанр: Opera
Страна-производитель диска: Germany
Год издания диска: 2002
Издатель (лейбл): Farao Classics
Номер по каталогу: B 108 040
Дата записи: 07.2002 live
Аудиокодек: FLAC
Тип рипа: image+.cue
Битрейт аудио: lossless
Продолжительность: 3:45:43
Источник: собственный рип
Наличие сканов в содержимом раздачи: да

CD1:Треклист:

Akt I
01. Vorspiel
Akt I Szene I
02. Wes Herd dies auch sei
03. Kuhlende Labung gab mir der Quell
04. Mud am Herd fand ich den Mann
05. Friedmund darf ich nicht heisen
06. Ich weis ein wildes Geschlecht
Akt I Szene II
07. Ein Schwert verhies mir der Vater
08. Schlafst du, Gast?
09. Wintersturme wichen dem Wonnemond
10. Wehwalt heist du furwahr?
Total 64.23

Лог создания рипа:

Exact Audio Copy V1.0 beta 3 from 29. August 2011
Отчёт EAC об извлечении, выполненном 28. февраля 2015, 18:27
Richard Wagner / Die Walkure - CD1
Дисковод: _NEC DVD_RW ND-3570A Adapter: 2 ID: 0
Режим чтения : Скоростной
Коррекция смещения при чтении : 48
Способность читать области Lead-in и Lead-out : Нет
Заполнение пропущенных сэмплов тишиной : Да
Удаление блоков с тишиной в начале и конце : Нет
При вычислениях CRC использовались нулевые сэмплы : Да
Интерфейс : Встроенный Win32-интерфейс для Win NT/2000
Выходной формат : Пользовательский кодировщик
Выбранный битрейт : 896 kBit/s
Качество : Высокий
Добавление ID3-тега : Нет
Утилита сжатия : C:\Program Files\FLAC Frontend\tools\flac.exe
Дополнительные параметры : -V -8 -T "Date=%year%" -T "Genre=%genre%" %source%
TOC извлечённого CD
Трек | Старт | Длительность | Начальный сектор | Конечный сектор
---------------------------------------------------------------------
1 | 0:00.00 | 3:42.53 | 0 | 16702
2 | 3:42.53 | 2:50.30 | 16703 | 29482
3 | 6:33.08 | 8:45.62 | 29483 | 68919
4 | 15:18.70 | 4:40.74 | 68920 | 89993
5 | 19:59.69 | 9:56.05 | 89994 | 134698
6 | 29:55.74 | 5:35.65 | 134699 | 159888
7 | 35:31.64 | 5:57.54 | 159889 | 186717
8 | 41:29.43 | 6:58.54 | 186718 | 218121
9 | 48:28.22 | 10:14.57 | 218122 | 264228
10 | 58:43.04 | 5:39.61 | 264229 | 289714
Характеристики диапазона извлечения и сообщения об ошибках
Выбранный диапазон
Имя файла N:\Wagner - Die Walkure - Mehta\CD1\Richard Wagner - Die Walkure - CD1.wav
Пиковый уровень 99.9 %
Скорость извлечения 6.6 X
CRC теста 4E4DEDFD
CRC копии 4E4DEDFD
Копирование... OK
Ошибок не произошло
AccurateRip: сводка
Трек 1 : извлечено точно (доверие 2) [90144472] (AR v2)
Трек 2 : извлечено точно (доверие 2) [48B4822C] (AR v2)
Трек 3 : извлечено точно (доверие 2) [03C17700] (AR v2)
Трек 4 : извлечено точно (доверие 2) [EC56E89E] (AR v2)
Трек 5 : извлечено точно (доверие 2) [5C3B1015] (AR v2)
Трек 6 : извлечено точно (доверие 2) [B35CBC2A] (AR v2)
Трек 7 : извлечено точно (доверие 2) [A064117F] (AR v2)
Трек 8 : извлечено точно (доверие 2) [38457FEB] (AR v2)
Трек 9 : извлечено точно (доверие 2) [99BF9D6D] (AR v2)
Трек 10 : извлечено точно (доверие 2) [E114633C] (AR v2)
Все треки извлечены точно
Конец отчёта
==== Контрольная сумма отчёта 41A89B2517D3D8CC9D70BB7CC2C0E163E3DB6384EA854D564C6D95928B1B57F6 ====

CD2:Треклист:

Akt II
01. Vorspiel
Akt II Szene I
02. Nun zaume dein Ros, reisige Maid!
03. Der alte Sturm, die alte Muh'!
04. Was verlangst du?
Akt II Szene II
05. Schlimm, furcht ich, schlos der Streit
06. Als junger Liebe Lust mir verblich
07. Ein andres ist's
08. Und fur das Ende sorgt Alberich!
Akt II Szene III
09. Raste nun hier
Total 65.11

Лог создания рипа:

Exact Audio Copy V1.0 beta 3 from 29. August 2011
Отчёт EAC об извлечении, выполненном 28. февраля 2015, 19:04
Richard Wagner / Die Walkure - CD2
Дисковод: _NEC DVD_RW ND-3570A Adapter: 2 ID: 0
Режим чтения : Скоростной
Коррекция смещения при чтении : 48
Способность читать области Lead-in и Lead-out : Нет
Заполнение пропущенных сэмплов тишиной : Да
Удаление блоков с тишиной в начале и конце : Нет
При вычислениях CRC использовались нулевые сэмплы : Да
Интерфейс : Встроенный Win32-интерфейс для Win NT/2000
Выходной формат : Пользовательский кодировщик
Выбранный битрейт : 896 kBit/s
Качество : Высокий
Добавление ID3-тега : Нет
Утилита сжатия : C:\Program Files\FLAC Frontend\tools\flac.exe
Дополнительные параметры : -V -8 -T "Date=%year%" -T "Genre=%genre%" %source%
TOC извлечённого CD
Трек | Старт | Длительность | Начальный сектор | Конечный сектор
---------------------------------------------------------------------
1 | 0:00.00 | 1:57.50 | 0 | 8824
2 | 1:57.50 | 2:25.01 | 8825 | 19700
3 | 4:22.51 | 13:55.21 | 19701 | 82346
4 | 18:17.72 | 5:30.45 | 82347 | 107141
5 | 23:48.42 | 5:42.33 | 107142 | 132824
6 | 29:31.00 | 4:54.51 | 132825 | 154925
7 | 34:25.51 | 7:48.11 | 154926 | 190036
8 | 42:13.62 | 9:33.20 | 190037 | 233031
9 | 51:47.07 | 13:24.15 | 233032 | 293346
Характеристики диапазона извлечения и сообщения об ошибках
Выбранный диапазон
Имя файла N:\Wagner - Die Walkure - Mehta\CD2\Richard Wagner - Die Walkure - CD2.wav
Проблемы синхронизации 0:07:34
Пиковый уровень 99.7 %
Скорость извлечения 6.6 X
CRC теста 03046F64
CRC копии 03046F64
Копирование завершено
Ошибок не произошло
AccurateRip: сводка
Трек 1 : извлечено точно (доверие 2) [7CDE370B] (AR v2)
Трек 2 : извлечено точно (доверие 2) [59573EAB] (AR v2)
Трек 3 : извлечено точно (доверие 2) [352BF85E] (AR v2)
Трек 4 : извлечено точно (доверие 2) [1DF2FF24] (AR v2)
Трек 5 : извлечено точно (доверие 2) [536D8375] (AR v2)
Трек 6 : извлечено точно (доверие 2) [253FB3D0] (AR v2)
Трек 7 : извлечено точно (доверие 2) [6AAAC58B] (AR v2)
Трек 8 : извлечено точно (доверие 2) [99BEB47F] (AR v2)
Трек 9 : извлечено точно (доверие 2) [364A399C] (AR v2)
Все треки извлечены точно
Конец отчёта
==== Контрольная сумма отчёта E3964546E43A797B2DC153D82DD3EBCEF7857101D7D54E4AB9BF58B50EB591CB ====

CD3:Треклист:

Akt II Szene IV
01. Siegmund, sieh auf mich!
02. So gruse mir Walhall
Akt II Szene V
03. Zauberfest bezahmt ein Schlaf
04. Kehrte der Vater nun heim!
Total 28.44

Лог создания рипа:

Exact Audio Copy V1.0 beta 3 from 29. August 2011
Отчёт EAC об извлечении, выполненном 28. февраля 2015, 19:18
Richard Wagner / Die Walkure - CD3
Дисковод: _NEC DVD_RW ND-3570A Adapter: 2 ID: 0
Режим чтения : Скоростной
Коррекция смещения при чтении : 48
Способность читать области Lead-in и Lead-out : Нет
Заполнение пропущенных сэмплов тишиной : Да
Удаление блоков с тишиной в начале и конце : Нет
При вычислениях CRC использовались нулевые сэмплы : Да
Интерфейс : Встроенный Win32-интерфейс для Win NT/2000
Выходной формат : Пользовательский кодировщик
Выбранный битрейт : 896 kBit/s
Качество : Высокий
Добавление ID3-тега : Нет
Утилита сжатия : C:\Program Files\FLAC Frontend\tools\flac.exe
Дополнительные параметры : -V -8 -T "Date=%year%" -T "Genre=%genre%" %source%
TOC извлечённого CD
Трек | Старт | Длительность | Начальный сектор | Конечный сектор
---------------------------------------------------------------------
1 | 0:00.00 | 9:20.49 | 0 | 42048
2 | 9:20.49 | 9:21.15 | 42049 | 84138
3 | 18:41.64 | 3:29.05 | 84139 | 99818
4 | 22:10.69 | 6:32.48 | 99819 | 129266
Характеристики диапазона извлечения и сообщения об ошибках
Выбранный диапазон
Имя файла N:\Wagner - Die Walkure - Mehta\CD3\Richard Wagner - Die Walkure - CD3.wav
Пиковый уровень 99.9 %
Скорость извлечения 5.5 X
CRC теста AB4E8385
CRC копии AB4E8385
Копирование... OK
Ошибок не произошло
AccurateRip: сводка
Трек 1 : извлечено точно (доверие 2) [0DB165EA] (AR v2)
Трек 2 : извлечено точно (доверие 2) [1CD2A1EA] (AR v2)
Трек 3 : извлечено точно (доверие 2) [6501950A] (AR v2)
Трек 4 : извлечено точно (доверие 2) [472DEBB2] (AR v2)
Все треки извлечены точно
Конец отчёта
==== Контрольная сумма отчёта 0C39B94CF702A4920FF628D895C3E5BB14541F93530C9C9B44E04720D90BFDB9 ====

CD4:Треклист:

Akt III
01. Vorspiel
Akt III Szene I
02. Hojotoho!
03. Nach dem Tann lenkt sie das taumelnde Ros
04. Nich sehre dich Sorge um mich
Akt III Szene II
05. Wo ist Brunnhild!
Akt II Szene III
06. Wae es so schmahlich
07. Wohl taugte dir nicht die tor'ge Maid
08. Leb wohl, du kuhnes, herrliches Kind!
09. Loge, hor! Lausche hierher!
Total 70.12

Лог создания рипа:

Exact Audio Copy V1.0 beta 3 from 29. August 2011
Отчёт EAC об извлечении, выполненном 28. февраля 2015, 19:53
Richard Wagner / Die Walkure - CD4
Дисковод: _NEC DVD_RW ND-3570A Adapter: 2 ID: 0
Режим чтения : Скоростной
Коррекция смещения при чтении : 48
Способность читать области Lead-in и Lead-out : Нет
Заполнение пропущенных сэмплов тишиной : Да
Удаление блоков с тишиной в начале и конце : Нет
При вычислениях CRC использовались нулевые сэмплы : Да
Интерфейс : Встроенный Win32-интерфейс для Win NT/2000
Выходной формат : Пользовательский кодировщик
Выбранный битрейт : 896 kBit/s
Качество : Высокий
Добавление ID3-тега : Нет
Утилита сжатия : C:\Program Files\FLAC Frontend\tools\flac.exe
Дополнительные параметры : -V -8 -T "Date=%year%" -T "Genre=%genre%" %source%
TOC извлечённого CD
Трек | Старт | Длительность | Начальный сектор | Конечный сектор
---------------------------------------------------------------------
1 | 0:00.00 | 1:21.34 | 0 | 6108
2 | 1:21.34 | 5:09.63 | 6109 | 29346
3 | 6:31.22 | 4:35.27 | 29347 | 49998
4 | 11:06.49 | 6:55.48 | 49999 | 81171
5 | 18:02.22 | 12:42.36 | 81172 | 138357
6 | 30:44.58 | 13:46.69 | 138358 | 200376
7 | 44:31.52 | 8:29.28 | 200377 | 238579
8 | 53:01.05 | 11:30.24 | 238580 | 290353
9 | 64:31.29 | 5:41.02 | 290354 | 315930
Характеристики диапазона извлечения и сообщения об ошибках
Выбранный диапазон
Имя файла N:\Wagner - Die Walkure - Mehta\CD4\Richard Wagner - Die Walkure - CD4.wav
Пиковый уровень 100.0 %
Скорость извлечения 7.0 X
CRC теста 7532BAF9
CRC копии 7532BAF9
Копирование... OK
Ошибок не произошло
AccurateRip: сводка
Трек 1 : извлечено точно (доверие 2) [D516F7C2] (AR v2)
Трек 2 : извлечено точно (доверие 2) [556DA689] (AR v2)
Трек 3 : извлечено точно (доверие 2) [18063260] (AR v2)
Трек 4 : извлечено точно (доверие 2) [E07F53F3] (AR v2)
Трек 5 : извлечено точно (доверие 2) [53C8C8A1] (AR v2)
Трек 6 : извлечено точно (доверие 2) [7C2DEA0F] (AR v2)
Трек 7 : извлечено точно (доверие 2) [13996898] (AR v2)
Трек 8 : извлечено точно (доверие 2) [E6DA2EAC] (AR v2)
Трек 9 : извлечено точно (доверие 2) [FCC1CA7D] (AR v2)
Все треки извлечены точно
Конец отчёта
==== Контрольная сумма отчёта 2BFC6E0C9478DE0E30B6F66D70E7FC1E7422D14536D105758FC9E5C32368354F ====

Исполнители:

Siegmund - Peter Seiffert
Sieglinde - Waltraud Meier
Wotan - John Tomlison
Brünnhilde - Gabriele Schnaut
Fricka - Mihoko Fujimura
Hunding - Kurt Rydl
Gerhilde - Irmgard Vilsmaier
Ortlinde - Jennifer Trost
Waltraute - Ann-Katrin Naidu
Schwertleite - Anne Pellekoorne
Helmwige - Sally du Randt
Siegrune - Heike Gronzinger
Grimgerde - Marita Knobel
Rossweise - Ingrid Bartz
Bayerisches Staatsorchester
Zubin Mehta



Показать сообщения:    

Текущее время: 05-Дек 21:39

Часовой пояс: UTC + 3


Вы не можете начинать темы
Вы не можете отвечать на сообщения
Вы не можете редактировать свои сообщения
Вы не можете удалять свои сообщения
Вы не можете голосовать в опросах
Вы не можете прикреплять файлы к сообщениям
Вы не можете скачивать файлы